注册/登陆
游客您好
第三方账号登陆

    电影合辑精选全球4K电影合辑,拒绝烂片!

    即将

    发布

    4 K



    最新发布第一时间发布最新4K电影!

    昨天 22:54/4K(3840x2160)

    催眠对决4K

    General............: Hypnosis.Battle.2024.2160p.WEB-DL.H265.AAC-4kSJ Duration...........: 01:42:38.210 (HH:MM:SS:FF) RELEASE.SIZE.......: 9.59 GiB VIDEO.CODEC........: HEVC Main@L5@Main FRAMERATE..........: 24.000 fps VIDEO.BITRATE......: 13.4 Mb/s RESOLUTION.........: 3840 x 1608 ASPECT.RATIO.......: 2.40:1 Audio..............: AAC 2 channels 192kb/s

    催眠对决4K(2024年)
    ①网盘资源信息:
    剧情简介:  影片讲述了知名心理学教授叶远东受女演员安雅之托,携助手前往神秘的郊外别墅,参加关于催眠的剧本会,却意外被卷入一场迷局……
    8.2

    昨天 18:54/4K(3840x2160)

    忠奸人4k

    Video ID : 1 Format : HEVC Format/Info : High Efficiency Video Coding Format profile : Main 10@L5@Main HDR format : Dolby Vision, Version 1.0, dvhe.08.06, BL+RPU, HDR10 compatible / SMPTE ST 2094 App 4, Version 1, HDR10+ Profile B compatible Codec ID : V_MPEGH/ISO/HEVC Duration : 2 h 6 min Bit rate : 4 466 kb/s Width : 3 840 pixels Height : 1 600 pixels Display aspect ratio : 2.40:1 Frame rate mode : Constant Frame rate : 23.976 (24000/1001) FPS Color space : YUV Chroma subsampling : 4:2:0 (Type 2) Bit depth : 10 bits Bits/(Pixel*Frame) : 0.030 Stream size : 3.95 GiB (78%) Title : Video 2160p Writing library : x265 3.5+113-8787af124:[Windows][GCC 13.2.0][64 bit] 10bit Encoding settings : cpuid=1111039 / frame-threads=5 / numa-pools=32 / wpp / no-pmode / no-pme / no-psnr / no-ssim / log-level=2 / input-csp=1 / input-res=3840x1600 / interlace=0 / total-frames=0 / level-idc=0 / high-tier=1 / uhd-bd=0 / ref=3 / no-allow-non-conformance / repeat-headers / annexb / no-aud / no-eob / no-eos / no-hrd / info / hash=0 / temporal-layers=0 / open-gop / min-keyint=23 / keyint=250 / gop-lookahead=0 / bframes=4 / b-adapt=2 / b-pyramid / bframe-bias=0 / rc-lookahead=20 / lookahead-slices=8 / scenecut=40 / no-hist-scenecut / radl=0 / no-splice / no-intra-refresh / ctu=64 / min-cu-size=8 / no-rect / no-amp / max-tu-size=32 / tu-inter-depth=1 / tu-intra-depth=1 / limit-tu=0 / rdoq-level=0 / dynamic-rd=0.00 / no-ssim-rd / signhide / no-tskip / nr-intra=0 / nr-inter=0 / no-constrained-intra / strong-intra-smoothing / max-merge=3 / limit-refs=1 / no-limit-modes / me=1 / subme=2 / merange=57 / temporal-mvp / no-frame-dup / no-hme / weightp / no-weightb / no-analyze-src-pics / deblock=0:0 / sao / no-sao-non-deblock / rd=3 / selective-sao=4 / early-skip / rskip / no-fast-intra / no-tskip-fast / no-cu-lossless / b-intra / no-splitrd-skip / rdpenalty=0 / psy-rd=2.00 / psy-rdoq=0.00 / no-rd-refine / no-lossless / cbqpoffs=0 / crqpoffs=0 / rc=crf / crf=18.0 / qcomp=0.60 / qpstep=4 / stats-write=0 / stats-read=0 / ipratio=1.40 / pbratio=1.30 / aq-mode=1 / aq-strength=0.00 / cutree / zone-count=0 / no-strict-cbr / qg-size=32 / no-rc-grain / qpmax=69 / qpmin=0 / no-const-vbv / sar=1 / overscan=0 / videoformat=5 / range=0 / colorprim=9 / transfer=16 / colormatrix=9 / chromaloc=1 / chromaloc-top=2 / chromaloc-bottom=2 / display-window=0 / master-display=G(13250,34500)B(7500,3000)R(34000,16000)WP(15635,16450)L(10000000,50) / cll=1000,400 / min-luma=0 / max-luma=1023 / log2-max-poc-lsb=8 / vui-timing-info / vui-hrd-info / slices=1 / no-opt-qp-pps / no-opt-ref-list-length-pps / no-multi-pass-opt-rps / scenecut-bias=0.05 / no-opt-cu-delta-qp / no-aq-motion / hdr10 / hdr10-opt / no-dhdr10-opt / no-idr-recovery-sei / analysis-reuse-level=0 / analysis-save-reuse-level=0 / analysis-load-reuse-level=0 / scale-factor=0 / refine-intra=0 / refine-inter=0 / refine-mv=1 / refine-ctu-distortion=0 / no-limit-sao / ctu-info=0 / no-lowpass-dct / refine-analysis-type=0 / copy-pic=1 / max-ausize-factor=1.0 / no-dynamic-refine / no-single-sei / no-hevc-aq / no-svt / no-field / qp-adaptation-range=1.00 / scenecut-aware-qp=0conformance-window-offsets / right=0 / bottom=0 / decoder-max-rate=0 / no-vbv-live-multi-pass / no-mcstf / no-sbrc Language : Italian Default : Yes Forced : No Color range : Limited Color primaries : BT.2020 Transfer characteristics : PQ Matrix coefficients : BT.2020 non-constant Mastering display color primaries : Display P3 Mastering display luminance : min: 0.0050 cd/m2, max: 1000 cd/m2 Maximum Content Light Level : 1000 cd/m2 Maximum Frame-Average Light Level : 400 cd/m2 Audio #1 ID : 2 Format : AC-3 Format/Info : Audio Coding 3 Commercial name : Dolby Digital Codec ID : A_AC3 Duration : 2 h 6 min Bit rate mode : Constant Bit rate : 640 kb/s Channel(s) : 6 channels Channel layout : L R C LFE Ls Rs Sampling rate : 48.0 kHz Frame rate : 31.250 FPS (1536 SPF) Compression mode : Lossy Stream size : 580 MiB (11%) Title : Italiano AC-3 5.1 Language : Italian Service kind : Complete Main Default : Yes Forced : No Audio #2 ID : 3 Format : AC-3 Format/Info : Audio Coding 3 Commercial name : Dolby Digital Codec ID : A_AC3 Duration : 2 h 6 min Bit rate mode : Constant Bit rate : 640 kb/s Channel(s) : 6 channels Channel layout : L R C LFE Ls Rs Sampling rate : 48.0 kHz Frame rate : 31.250 FPS (1536 SPF) Compression mode : Lossy Stream size : 580 MiB (11%) Title : English AC-3 5.1 Language : English Service kind : Complete Main Default : No Forced : No Text #1 ID : 4 Format : UTF-8 Codec ID : S_TEXT/UTF8 Codec ID/Info : UTF-8 Plain Text Duration : 1 h 49 min Bit rate : 1 b/s Frame rate : 0.004 FPS Count of elements : 24 Stream size : 1.57 KiB (0%) Title : Italiano Forced Language : Italian Default : Yes Forced : Yes Text #2 ID : 5 Format : UTF-8 Codec ID : S_TEXT/UTF8 Codec ID/Info : UTF-8 Plain Text Duration : 2 s 628 ms Bit rate : 185 b/s Frame rate : 0.381 FPS Count of elements : 1 Stream size : 61.0 Bytes (0%) Title : English Forced Language : Italian Default : No Forced : No Text #3 ID : 6 Format : UTF-8 Codec ID : S_TEXT/UTF8 Codec ID/Info : UTF-8 Plain Text Duration : 2 h 0 min Bit rate : 74 b/s Frame rate : 0.181 FPS Count of elements : 1303 Stream size : 65.3 KiB (0%) Title : Italiano Language : Italian Default : No Forced : No Text #4 ID : 7 Format : UTF-8 Codec ID : S_TEXT/UTF8 Codec ID/Info : UTF-8 Plain Text Duration : 1 h 59 min Bit rate : 58 b/s Frame rate : 0.185 FPS Count of elements : 1327 Stream size : 51.5 KiB (0%) Title : English Language : Italian Default : No Forced : No Menu 00:00:00.000 : 00:00:00.000 00:06:06.449 : 00:06:06.449 00:13:33.229 : 00:13:33.229 00:24:21.502 : 00:24:21.502 00:30:33.248 : 00:30:33.248 00:38:03.406 : 00:38:03.406 00:47:13.664 : 00:47:13.664 00:55:44.466 : 00:55:44.466 01:03:31.307 : 01:03:31.307 01:11:01.424 : 01:11:01.424 01:21:51.156 : 01:21:51.156 01:28:13.997 : 01:28:13.997 01:38:59.684 : 01:38:59.684 01:48:52.568 : 01:48:52.568 01:55:54.948 : 01:55:54.948

    忠奸人4k(90年代)
    8.2
    ①网盘资源信息:
    剧情简介: 为了对付黑社会,联邦调查局的探员皮斯顿(约翰尼•戴普 饰)不得不告别妻子和三个女儿,化名唐尼•布拉斯科打入黑帮鲁吉罗家族卧底。为了取得帮派内部成员的信任,唐尼在头目“老左”(阿尔•帕西诺 饰)的带领下,参加了一系列的犯罪活动,也逐渐掌握了他们的犯罪证据。   然而,长时间的相处中,“老左”对唐尼信任有加,唐尼也见识到“老左”温情的一面,慢慢地对他产生了敬佩之情,傍徨不定,不再向上级及时汇报情况;同时,由于卧底工作的特殊性,唐尼极少和妻女见面,家庭生活濒临崩溃。   此时,帮派内部的仇杀开始了,“老左”的上级黑桑铲除异己,掀起了一场腥风血雨。唐尼也将面对或“忠”或“奸”的抉择。
    6.4

    昨天 18:43/4K(3840x2160)

    被我弄丢的你4k

    General............: I.Miss.You.2024.2160p.WEB-DL.H265.HDR.DDP5.1-4ksj Duration...........: 01:52:58.112 (HH:MM:SS:FF) RELEASE.SIZE.......: 9.27 GiB VIDEO.CODEC........: HEVC Main 10@L5@Main SMPTE ST 2086, HDR10 compatible FRAMERATE..........: 24.000 fps VIDEO.BITRATE......: 11.0 Mb/s RESOLUTION.........: 3840 x 1608 ASPECT.RATIO.......: 2.40:1 Audio..............: E-AC-3 6 channels 256 kb/s Chinese Mandarin [DDP5.1] Audio..............: E-AC-3 2 channels 256 kb/s Chinese Mandarin [DDP2.0] Audio..............: AAC 2 channels 192 kb/s Chinese Mandarin [AAC2.0]

    被我弄丢的你4k(2024年)
    6.4
    ①网盘资源信息:
    剧情简介:影片改编自郑执原著小说《被我弄丢两次的王斤斤》。   2010年夏天,高考考场上,白晓宇(檀健次 饰)第一次遇见王斤斤(张婧仪 饰),就把她给“弄丢”了。   四年后,他们在毕业季的求职人潮中意外重逢,然后相恋。   2018年,相识八年、相爱五年的他们站在婚姻的门前踌躇不前了。   他们彼此相爱却又难逃现实的重重羁绊,白晓宇会再一次 弄丢王斤斤吗……

    昨天 18:39/4K(3840x2160)

    大“反”派4k

    General............: Super.Villain.2024.2160p.HQ.WEB-DL.H265.DTS5.1-4ksj Duration...........: 01:38:05.216 (HH:MM:SS:FF) RELEASE.SIZE.......: 14.6 GiB VIDEO.CODEC........: HEVC Main 10@L5.1@Main FRAMERATE..........: 24.000 fps VIDEO.BITRATE......: 19.8 Mb/s RESOLUTION.........: 3840 x 2080 ASPECT.RATIO.......: 1.85:1 Audio..............: DTS 6 channels 768 kb/s Chinese Mandarin [DTS5.1] Audio..............: E-AC-3 6 channels 448 kb/s Chinese Mandarin [DDP5.1] Audio..............: AAC 2 channels 256 kb/s Chinese Mandarin [AAC2.0]

    ①网盘资源信息:
    剧情简介:讲述小演员毕超(包贝尔 饰)因意外失忆误以为自己是个十恶不赦的大反派,还把与自己对戏的女演员冰冰(克拉拉 饰)也错认成了现实中的妻子(李嘉琦 饰),为了让妻子过上更好的生活,毕超下定决心完成反派“绑架大富豪”的使命,在这一过程中意外与老大(周大勇 饰)、老二(马旭东 饰)、老三(喳喳 饰)三名歹徒结下梁子,自此踏上了惨遭碾压的倒霉爆笑之旅。
    8.3

    昨天 18:29/4K(3840x2160)

    成为简·奥斯汀4k

    General............: Becoming.Jane.2007.2160p.HQ.WEB-DL.H265.60fps.AAC.2Audio-4ksj Duration...........: 01:59:59.731 (HH:MM:SS:FF) RELEASE.SIZE.......: 21.2 GiB VIDEO.CODEC........: HEVC Main 10@L5.1@Main FRAMERATE..........: 60.000 fps VIDEO.BITRATE......: 25.0 Mb/s RESOLUTION.........: 3840 x 1624 ASPECT.RATIO.......: 2.35:1 Audio..............: AAC 2 channels 192 kb/s English [AAC2.0] Audio..............: AAC 2 channels 192 kb/s Chinese Mandarin [AAC2.0]

    成为简·奥斯汀4k(00年代)
    8.3
    ①网盘资源信息:
    剧情简介:简•奥斯汀(安妮·海瑟薇 Anne Hathaway 饰)的一生是否如她的文字那样充满曲折的过程和完满的结局?《成为简》用传记方式描述她的一生:她的母亲竭力为她撮合婚事,对象是上层社会的有钱人。但是简不接受没有爱情的婚姻,认为女人要靠自己的能力去养活自身。于是,她拒绝贵族瓦斯莱先生的求婚,爱上了心灵相通的汤姆•勒弗罗伊(詹姆斯·麦卡沃伊 James McAvoy 饰)。   好事多磨,有人从中作梗,导致汤姆家人并不赞成二人婚事,汤姆决定携简私奔。但是这样一来,汤姆的经济来源就会被切断,简亦将面临着世俗的压力和贫困的生活。到底二人在私奔路上会走得多远?会不会有美满的结局?
    免费网盘资源下载

    热门电影全网最热最火的4K电影大片!
    8.2

    7 天前/4K(3840x2160)

    沙丘2

    沙丘2(2024年)
    8.2
    ①网盘资源信息:
    剧情简介:《沙丘2》承接第一部剧情,讲述保罗·厄崔迪(提莫西·查拉梅 Timothée Chalamet 饰)被帕迪沙皇帝和哈克南人联手灭族后,在厄拉科斯星球遇到弗雷曼女战士契妮(赞达亚 Zendaya 饰)以及加入弗雷曼人后展开的传奇旅程。保罗与让他家破人亡的阴谋家们开战,同时面临着一生所爱与已知宇宙命运的两难选择。
    8.3

    2024-3-15/4K(3840x2160)

    真实的谎言4K

    BD Info wrote: Disc Label: True.Lies.1994.Ultimate.Collectors.Edition.2160p.CAN.UHD.Blu-ray.DV.HDR.HEVC.TrueHD.7.1.Atmos-4ksj.torrent Disc Size: 89,378,797,365 bytes Protection: AACS2 Playlist: 00800.MPLS Size: 88,640,514,048 bytes Length: 02:20:48.815 Total Bitrate: 83.93 Mbps Video: MPEG-H HEVC Video / 63,617 kbps / 2160p / 23.976 fps / 16:9 / Main 10 @ Level 5.1 @ High / 4:2:0 / 10 bits / HDR10 / Limited Range / BT.2020 / PQ / BT.2020 non-constant / Mastering display color primaries: BT.2020 / Mastering display luminance: min: 0.0001 cd/m2, max: 1000.0000 cd/m2 / Maximum Content Light Level: 201 cd / m2 / Maximum Frame-Average Light Level: 201 cd/m2 * Video: MPEG-H HEVC Video / 5,632 kbps / 1080p / 23.976 fps / 16:9 / Main 10 @ Level 5.1 @ High / 4:2:0 / 10 bits / Dolby Vision / Limited Range / BT.2020 / PQ / BT.2020 non-constant / Mastering display color primaries: BT.2020 / Mastering display luminance: min: 0.0001 cd/m2, max: 1000.0000 cd/m2 Audio: English / Dolby TrueHD/Atmos Audio / 7.1 / 48 kHz / 4898 kbps / 24-bit (AC3 Embedded: 5.1 / 48 kHz / 640 kbps / DN -27dB) Audio: English / DTS-HD Master Audio / 2.0 / 48 kHz / 935 kbps / 24-bit (DTS Core: 2.0 / 48 kHz / 768 kbps / 24-bit / DN -4dB) Audio: English / Dolby Digital Audio / 2.0 / 48 kHz / 320 kbps / DN -27dB Audio: French / DTS-HD High-Res Audio / 5.1 / 48 kHz / 2046 kbps / 24-bit (DTS Core: 5.1 / 48 kHz / 1509 kbps / 24-bit / DN -4dB) Audio: Spanish / Dolby Digital Audio / 5.1 / 48 kHz / 640 kbps / DN -26dB Subtitle: English / 39.18 kbps Subtitle: French / 28.40 kbps Subtitle: Spanish / 30.01 kbps Subtitle: English / 0.19 kbps Subtitle: French / 0.49 kbps Subtitle: Spanish / 0.27 kbps ISC INFO: Disc Title: True Lies 1994 ULTRAHD BluRay 2160p HEVC Atmos TrueHD7.1-4Ksj Disc Size: 100,598,412,261 bytes Protection: AACS2 Extras: Ultra HD, BD-Java BDInfo: 0.7.6.1 (compatible layout created by DVDFab 13 13.0.1.4) PLAYLIST REPORT: Name: 00800.MPLS Length: 2:20:48.815 (h:m:s.ms) Size: 99,859,415,040 bytes Total Bitrate: 94.55 Mbps (*) Indicates included stream hidden by this playlist. VIDEO: Codec Bitrate Description ----- ------- ----------- MPEG-H HEVC Video 63617 kbps 2160p / 23.976 fps / 16:9 / Main 10 @ Level 5.1 @ High / 4:2:0 / 10 bits / 1000nits / HDR10 / BT.2020 * MPEG-H HEVC Video 5632 kbps (8.13%) 1080p / 23.976 fps / 16:9 / Main 10 @ Level 5.1 @ High / 4:2:0 / 10 bits / 1000nits / Dolby Vision FEL / BT.2020 AUDIO: Codec Language Bitrate Description ----- -------- ------- ----------- Dolby TrueHD/Atmos Audio English 5538 kbps 7.1+13 objects / 48 kHz / 4898 kbps / 24-bit (AC3 Core: 5.1 / 48 kHz / 640 kbps) DTS-HD Master Audio English 935 kbps 2.0 / 48 kHz / 935 kbps / 24-bit (DTS Core: 2.0 / 48 kHz / 768 kbps / 24-bit) Dolby Digital Audio English 320 kbps 2.0 / 48 kHz / 320 kbps Dolby TrueHD/Atmos Audio Chinese 5937 kbps 7.1+11 objects / 48 kHz / 5297 kbps / 24-bit (AC3 Core: 5.1 / 48 kHz / 640 kbps) 东影新上译国语全景声 DTS-HD Master Audio Chinese 2350 kbps 5.1 / 48 kHz / 2350 kbps / 16-bit (DTS Core: 5.1 / 48 kHz / 1509 kbps / 16-bit) 上译国语次时代 DTS-HD Master Audio Chinese 2354 kbps 5.1 / 48 kHz / 2354 kbps / 16-bit (DTS Core: 5.1 / 48 kHz / 1509 kbps / 16-bit) 央视国语次时代 Dolby Digital Audio Chinese 192 kbps 2.0 / 48 kHz / 192 kbps 高全胜版国语 SUBTITLES: Codec Language Bitrate Description ----- -------- ------- ----------- Presentation Graphics English 39.181 kbps Presentation Graphics Chinese 93.079 kbps 简体特效(对照东影新上译国语) Presentation Graphics Chinese 93.809 kbps 繁体特效(对照东影新上译国语) Presentation Graphics English 0.192 kbps Presentation Graphics French 0.495 kbps Presentation Graphics Spanish 0.266 kbps Presentation Graphics Chinese 91.182 kbps 简体特效(对照上译国语) Presentation Graphics Chinese 91.768 kbps 繁体特效(对照上译国语) Presentation Graphics Chinese 89.715 kbps 简体特效(对照央视国语) Presentation Graphics Chinese 90.276 kbps 繁体特效(对照央视国语) Presentation Graphics Chinese 116.296 kbps 简英双语特效 Presentation Graphics Chinese 116.96 kbps 繁英双语特效

    真实的谎言4K(90年代)
    8.3
    ①网盘资源信息:
    剧情简介: 哈里(阿诺•施瓦辛格 Arnold Schwarzenegger 饰)是美国FBI的高级特工,他正在奉命调查一起跨国核武器走私案件。出于安全考虑,哈里连结婚15年的妻子海伦(杰米•李•柯蒂斯 Jamie Lee Curtis 饰)都没有告诉他的真实身份。   海伦是一名普通白领,平凡的生活已令她心生厌倦。一次,汽车商西蒙假扮FBI特工,溜到海伦家谎称自己被人追杀。紧张刺激的经历很快令海伦着迷。   这一切都没有逃过真正的FBI特工哈里眼睛。哈里利用间谍侦查手段令到西蒙洋相百出,并化妆成法国人正欲调戏海伦时,被恐怖分子突然袭击,两人被挟持到一个热带小岛。哈里和海伦最终能否逃出生天,挫败恐怖分子阴谋?
    6.5

    4 天前/4K(3840x2160)

    功夫熊猫4 4k

    Video Codec info = HEVC Main 10@L5@High | V_MPEGH/ISO/HEVC Resolution = 3840x1602 Display AR = 2.397 | 2.40:1 Bitrate = 23.5 Mb/s Framerate = CFR 23.976 Color space = YUV Chroma subsampling = 4:2:0 Encoder = Audio Codec info = E-AC-3 | A_EAC3 Channels = 6 Bitrate = CBR 768 kb/s Samplerate = 48.0 kHz Language = English

    功夫熊猫4 4k(2024年)
    6.5
    ①网盘资源信息:
    剧情简介:神龙大侠阿宝(杰克·布莱克 Jack Black 配音)再度归来,要被师父(达斯汀·霍夫曼 Dustin Hoffman 配音)强行进阶修行。系列全新最强反派魅影妖后(维奥拉·戴维斯 Viola Davis 配音)登场,神秘莫测的她可以幻化成每一个阿宝的昔日宿敌。此次阿宝又结识了小真(奥卡菲娜 Awkwafina 配音)等新伙伴,并将一同开启这场冒险旅程。

    2024-4-4/4K(3840x2160)

    超意神探

    General............: Suspect.2024.2160p.WEB-DL.H265.DV.AAC.2Audio-4KSJ Duration...........: 01:34:03.354 (HH:MM:SS:FF) RELEASE.SIZE.......: 10.7 GiB VIDEO.CODEC........: HEVC Main 10@L5@High Dolby Vision, Version 1.0, dvhe.05.06, BL+RPU FRAMERATE..........: 24.000 fps VIDEO.BITRATE......: 15.8 Mb/s RESOLUTION.........: 3840 x 1608 ASPECT.RATIO.......: 2.40:1 Audio..............: AAC 2 channels 256 kb/s Chinese Cantonese [AAC2.0] Audio..............: AAC 2 channels 256 kb/s Chinese Mandarin [AAC2.0]

    超意神探(2024年)
    ①网盘资源信息:
    剧情简介:  讲述了患有超忆症的重案组警察郭文斌利用自己的特殊记忆能力与罪案凶手斗智斗勇,最终揭开案件背后的悲剧真相并坚持正义原则的故事。
    8.1

    2024-3-14/4K(3840x2160)

    康斯坦丁4k

    Video ID : 1 Format : HEVC Format/Info : High Efficiency Video Coding Format profile : Main 10@L5.1@Main Codec ID : V_MPEGH/ISO/HEVC Duration : 2 h 0 min Bit rate : 22.6 Mb/s Width : 3 840 pixels Height : 2 144 pixels Display aspect ratio : 16:9 Frame rate mode : Variable Frame rate : 59.940 FPS Original frame rate : 60.976 FPS Color space : YUV Chroma subsampling : 4:2:0 Bit depth : 10 bits Bits/(Pixel*Frame) : 0.046 Stream size : 19.0 GiB (77%) Default : No Forced : No Color range : Limited Matrix coefficients : BT.709 Audio #1 ID : 2 ID in the original source medium : 4352 (0x1100) Format : AC-3 Format/Info : Audio Coding 3 Commercial name : Dolby Digital Codec ID : A_AC3 Duration : 2 h 0 min Bit rate mode : Constant Bit rate : 640 kb/s Channel(s) : 6 channels Channel layout : L R C LFE Ls Rs Sampling rate : 48.0 kHz Frame rate : 31.250 FPS (1536 SPF) Bit depth : 32 bits Compression mode : Lossy Stream size : 553 MiB (2%) Title : Surround 5.1 Language : English Service kind : Complete Main Default : Yes Forced : No Original source medium : Blu-ray Audio #2 ID : 3 ID in the original source medium : 4353 (0x1101) Format : MLP FBA Format/Info : Meridian Lossless Packing FBA Commercial name : Dolby TrueHD Codec ID : A_TRUEHD Duration : 2 h 0 min Bit rate mode : Variable Bit rate : 1 404 kb/s Maximum bit rate : 3 267 kb/s Channel(s) : 6 channels Channel layout : L R C LFE Ls Rs Sampling rate : 48.0 kHz Frame rate : 1 200.000 FPS (40 SPF) Bit depth : 24 bits Compression mode : Lossless Stream size : 1.18 GiB (5%) Title : Surround 5.1 Language : English Default : No Forced : No Original source medium : Blu-ray Audio #3 ID : 4 ID in the original source medium : 4353 (0x1101) Format : AC-3 Format/Info : Audio Coding 3 Commercial name : Dolby Digital Codec ID : A_AC3 Duration : 2 h 0 min Bit rate mode : Constant Bit rate : 640 kb/s Channel(s) : 6 channels Channel layout : L R C LFE Ls Rs Sampling rate : 48.0 kHz Frame rate : 31.250 FPS (1536 SPF) Bit depth : 32 bits Compression mode : Lossy Stream size : 553 MiB (2%) Title : Surround 5.1 Language : English Service kind : Complete Main Default : No Forced : No Original source medium : Blu-ray Audio #4 ID : 5 ID in the original source medium : 4355 (0x1103) Format : AC-3 Format/Info : Audio Coding 3 Commercial name : Dolby Digital Codec ID : A_AC3 Duration : 2 h 0 min Bit rate mode : Constant Bit rate : 640 kb/s Channel(s) : 6 channels Channel layout : L R C LFE Ls Rs Sampling rate : 48.0 kHz Frame rate : 31.250 FPS (1536 SPF) Bit depth : 32 bits Compression mode : Lossy Stream size : 553 MiB (2%) Title : Surround 5.1 Language : French Service kind : Complete Main Default : No Forced : No Original source medium : Blu-ray Audio #5 ID : 6 ID in the original source medium : 4356 (0x1104) Format : AC-3 Format/Info : Audio Coding 3 Commercial name : Dolby Digital Codec ID : A_AC3 Duration : 2 h 0 min Bit rate mode : Constant Bit rate : 640 kb/s Channel(s) : 6 channels Channel layout : L R C LFE Ls Rs Sampling rate : 48.0 kHz Frame rate : 31.250 FPS (1536 SPF) Bit depth : 32 bits Compression mode : Lossy Stream size : 553 MiB (2%) Title : Surround 5.1 Language : French Service kind : Complete Main Default : No Forced : No Original source medium : Blu-ray Audio #6 ID : 7 ID in the original source medium : 4357 (0x1105) Format : AC-3 Format/Info : Audio Coding 3 Commercial name : Dolby Digital Codec ID : A_AC3 Duration : 2 h 0 min Bit rate mode : Constant Bit rate : 640 kb/s Channel(s) : 6 channels Channel layout : L R C LFE Ls Rs Sampling rate : 48.0 kHz Frame rate : 31.250 FPS (1536 SPF) Bit depth : 32 bits Compression mode : Lossy Stream size : 553 MiB (2%) Title : Surround 5.1 Language : German Service kind : Complete Main Default : No Forced : No Original source medium : Blu-ray Audio #7 ID : 8 ID in the original source medium : 4358 (0x1106) Format : AC-3 Format/Info : Audio Coding 3 Commercial name : Dolby Digital Codec ID : A_AC3 Duration : 2 h 0 min Bit rate mode : Constant Bit rate : 640 kb/s Channel(s) : 6 channels Channel layout : L R C LFE Ls Rs Sampling rate : 48.0 kHz Frame rate : 31.250 FPS (1536 SPF) Bit depth : 32 bits Compression mode : Lossy Stream size : 553 MiB (2%) Title : Surround 5.1 Language : Italian Service kind : Complete Main Default : No Forced : No Original source medium : Blu-ray Audio #8 ID : 9 ID in the original source medium : 4359 (0x1107) Format : AC-3 Format/Info : Audio Coding 3 Commercial name : Dolby Digital Codec ID : A_AC3 Duration : 2 h 0 min Bit rate mode : Constant Bit rate : 640 kb/s Channel(s) : 6 channels Channel layout : L R C LFE Ls Rs Sampling rate : 48.0 kHz Frame rate : 31.250 FPS (1536 SPF) Bit depth : 32 bits Compression mode : Lossy Stream size : 553 MiB (2%) Title : Surround 5.1 Language : Spanish Service kind : Complete Main Default : No Forced : No Original source medium : Blu-ray Audio #9 ID : 10 ID in the original source medium : 4360 (0x1108) Format : AC-3 Format/Info : Audio Coding 3 Commercial name : Dolby Digital Format settings : Dolby Surround Codec ID : A_AC3 Duration : 2 h 0 min Bit rate mode : Constant Bit rate : 192 kb/s Channel(s) : 2 channels Channel layout : L R Sampling rate : 48.0 kHz Frame rate : 31.250 FPS (1536 SPF) Bit depth : 32 bits Compression mode : Lossy Stream size : 166 MiB (1%) Title : Stereo Language : Spanish Service kind : Complete Main Default : No Forced : No Original source medium : Blu-ray Audio #10 ID : 11 ID in the original source medium : 4361 (0x1109) Format : AC-3 Format/Info : Audio Coding 3 Commercial name : Dolby Digital Format settings : Dolby Surround Codec ID : A_AC3 Duration : 2 h 0 min Bit rate mode : Constant Bit rate : 192 kb/s Channel(s) : 2 channels Channel layout : L R Sampling rate : 48.0 kHz Frame rate : 31.250 FPS (1536 SPF) Bit depth : 32 bits Compression mode : Lossy Stream size : 166 MiB (1%) Title : Stereo Language : English Service kind : Complete Main Default : No Forced : No Original source medium : Blu-ray Audio #11 ID : 12 ID in the original source medium : 4362 (0x110A) Format : AC-3 Format/Info : Audio Coding 3 Commercial name : Dolby Digital Format settings : Dolby Surround Codec ID : A_AC3 Duration : 2 h 0 min Bit rate mode : Constant Bit rate : 192 kb/s Channel(s) : 2 channels Channel layout : L R Sampling rate : 48.0 kHz Frame rate : 31.250 FPS (1536 SPF) Bit depth : 32 bits Compression mode : Lossy Stream size : 166 MiB (1%) Title : Stereo Language : English Service kind : Complete Main Default : No Forced : No Original source medium : Blu-ray Text #1 ID : 13 ID in the original source medium : 4609 (0x1201) Format : PGS Muxing mode : zlib Codec ID : S_HDMV/PGS Codec ID/Info : Picture based subtitle format used on BDs/HD-DVDs Duration : 2 h 0 min Bit rate : 19.2 kb/s Frame rate : 0.288 FPS Count of elements : 2086 Stream size : 16.6 MiB (0%) Language : English Default : Yes Forced : No Original source medium : Blu-ray Text #2 ID : 14 ID in the original source medium : 4610 (0x1202) Format : PGS Muxing mode : zlib Codec ID : S_HDMV/PGS Codec ID/Info : Picture based subtitle format used on BDs/HD-DVDs Duration : 2 h 0 min Bit rate : 15.5 kb/s Frame rate : 0.238 FPS Count of elements : 1714 Stream size : 13.3 MiB (0%) Language : French Default : No Forced : No Original source medium : Blu-ray Text #3 ID : 15 ID in the original source medium : 4611 (0x1203) Format : PGS Muxing mode : zlib Codec ID : S_HDMV/PGS Codec ID/Info : Picture based subtitle format used on BDs/HD-DVDs Duration : 2 h 0 min Bit rate : 23.0 kb/s Frame rate : 0.295 FPS Count of elements : 2136 Stream size : 19.9 MiB (0%) Language : German Default : No Forced : No Original source medium : Blu-ray Text #4 ID : 16 ID in the original source medium : 4612 (0x1204) Format : PGS Muxing mode : zlib Codec ID : S_HDMV/PGS Codec ID/Info : Picture based subtitle format used on BDs/HD-DVDs Duration : 2 h 0 min Bit rate : 19.3 kb/s Frame rate : 0.292 FPS Count of elements : 2112 Stream size : 16.7 MiB (0%) Language : Italian Default : No Forced : No Original source medium : Blu-ray Text #5 ID : 17 ID in the original source medium : 4613 (0x1205) Format : PGS Muxing mode : zlib Codec ID : S_HDMV/PGS Codec ID/Info : Picture based subtitle format used on BDs/HD-DVDs Duration : 2 h 0 min Bit rate : 15.8 kb/s Frame rate : 0.259 FPS Count of elements : 1870 Stream size : 13.6 MiB (0%) Language : Spanish Default : No Forced : No Original source medium : Blu-ray Text #6 ID : 18 ID in the original source medium : 4614 (0x1206) Format : PGS Muxing mode : zlib Codec ID : S_HDMV/PGS Codec ID/Info : Picture based subtitle format used on BDs/HD-DVDs Duration : 2 h 0 min Bit rate : 15.9 kb/s Frame rate : 0.237 FPS Count of elements : 1710 Stream size : 13.7 MiB (0%) Language : Dutch Default : No Forced : No Original source medium : Blu-ray Text #7 ID : 19 ID in the original source medium : 4615 (0x1207) Format : PGS Muxing mode : zlib Codec ID : S_HDMV/PGS Codec ID/Info : Picture based subtitle format used on BDs/HD-DVDs Duration : 2 h 0 min Bit rate : 17.5 kb/s Frame rate : 0.259 FPS Count of elements : 1870 Stream size : 15.1 MiB (0%) Language : Spanish Default : No Forced : No Original source medium : Blu-ray Text #8 ID : 20 ID in the original source medium : 4616 (0x1208) Format : PGS Muxing mode : zlib Codec ID : S_HDMV/PGS Codec ID/Info : Picture based subtitle format used on BDs/HD-DVDs Duration : 2 h 0 min Bit rate : 16.4 kb/s Frame rate : 0.208 FPS Count of elements : 1502 Stream size : 14.1 MiB (0%) Language : Danish Default : No Forced : No Original source medium : Blu-ray Text #9 ID : 21 ID in the original source medium : 4617 (0x1209) Format : PGS Muxing mode : zlib Codec ID : S_HDMV/PGS Codec ID/Info : Picture based subtitle format used on BDs/HD-DVDs Duration : 2 h 0 min Bit rate : 15.7 kb/s Frame rate : 0.231 FPS Count of elements : 1668 Stream size : 13.5 MiB (0%) Language : Finnish Default : No Forced : No Original source medium : Blu-ray Text #10 ID : 22 ID in the original source medium : 4618 (0x120A) Format : PGS Muxing mode : zlib Codec ID : S_HDMV/PGS Codec ID/Info : Picture based subtitle format used on BDs/HD-DVDs Duration : 2 h 0 min Bit rate : 16.8 kb/s Frame rate : 0.245 FPS Count of elements : 1764 Stream size : 14.4 MiB (0%) Language : Norwegian Default : No Forced : No Original source medium : Blu-ray Text #11 ID : 23 ID in the original source medium : 4619 (0x120B) Format : PGS Muxing mode : zlib Codec ID : S_HDMV/PGS Codec ID/Info : Picture based subtitle format used on BDs/HD-DVDs Duration : 2 h 0 min Bit rate : 17.3 kb/s Frame rate : 0.260 FPS Count of elements : 1872 Stream size : 14.9 MiB (0%) Language : Portuguese Default : No Forced : No Original source medium : Blu-ray Text #12 ID : 24 ID in the original source medium : 4620 (0x120C) Format : PGS Muxing mode : zlib Codec ID : S_HDMV/PGS Codec ID/Info : Picture based subtitle format used on BDs/HD-DVDs Duration : 2 h 0 min Bit rate : 15.0 kb/s Frame rate : 0.200 FPS Count of elements : 1440 Stream size : 12.9 MiB (0%) Language : Swedish Default : No Forced : No Original source medium : Blu-ray Text #13 ID : 25 ID in the original source medium : 4621 (0x120D) Format : PGS Muxing mode : zlib Codec ID : S_HDMV/PGS Codec ID/Info : Picture based subtitle format used on BDs/HD-DVDs Duration : 2 h 0 min Bit rate : 227 b/s Frame rate : 0.003 FPS Count of elements : 24 Stream size : 201 KiB (0%) Language : French Default : No Forced : No Original source medium : Blu-ray Text #14 ID : 26 ID in the original source medium : 4622 (0x120E) Format : PGS Muxing mode : zlib Codec ID : S_HDMV/PGS Codec ID/Info : Picture based subtitle format used on BDs/HD-DVDs Duration : 2 h 0 min Bit rate : 296 b/s Frame rate : 0.004 FPS Count of elements : 28 Stream size : 261 KiB (0%) Language : German Default : No Forced : No Original source medium : Blu-ray Text #15 ID : 27 ID in the original source medium : 4623 (0x120F) Format : PGS Muxing mode : zlib Codec ID : S_HDMV/PGS Codec ID/Info : Picture based subtitle format used on BDs/HD-DVDs Duration : 2 h 0 min Bit rate : 288 b/s Frame rate : 0.004 FPS Count of elements : 28 Stream size : 254 KiB (0%) Language : Italian Default : No Forced : No Original source medium : Blu-ray Text #16 ID : 28 ID in the original source medium : 4624 (0x1210) Format : PGS Muxing mode : zlib Codec ID : S_HDMV/PGS Codec ID/Info : Picture based subtitle format used on BDs/HD-DVDs Duration : 2 h 0 min Bit rate : 310 b/s Frame rate : 0.004 FPS Count of elements : 32 Stream size : 274 KiB (0%) Language : Spanish Default : No Forced : No Original source medium : Blu-ray

    康斯坦丁4k(00年代)
    8.1
    ①网盘资源信息:
    剧情简介:康斯坦丁(奇诺•李维斯 Keanu Reeves 饰)生来就能看出游走在人间的恶魔与天使,这令年幼时的他十分痛苦,曾经自杀想以这种方式结束自己的痛苦。后来获悉了上帝与撒旦之间有过协议,谁也不能直接插足人间,只能间接诱使人们选择天堂与地狱,而自杀者不得上天堂,他便开始利用自己天赋的超能力帮助铲除人间的恶魔,以此祈求获得一张天堂的门票。   一次在帮助一名女警调查她的妹妹的离奇死亡事件时,康斯坦丁意外获释了天使长加百利意图和撒旦的儿子联手统治人间的阴谋。康斯坦丁当然要竭尽全力阻止这一黑暗降临人间……

    每日推荐汇聚全球4K资源,每天推荐关注最高优质4K片源
    8.7

    2016-3-13/4K(3840x2160)

    时间的风景 TimeScapes

    TimeScapes 2012 2304p CineForm x264 DTS-WiKi TAGLINE...................: TimeScapes GENRE.....................: Documentary IMDb RATING...............: 7.6/10 from 590 users IMDb LINK.................: http://www.imdb.com/title/tt2297031/ ENCODER...................: ink RELEASE DATE..............: 2014.1.3 RELEASE SIZE..............: 27.8 GiB SOURCE....................: TimeScapes 4k CineForm(Thanks mactavishsoap@CHDBits) .Media.Info RUNTIME...................: 0h:48m:21s VIDEO CODEC...............: x264: 1pass-L4.1 80.3 Mbps@ CRF 16 (forced) RESOLUTION................: 4096 x 2304 DISPLAY ASPECT RATIO......: 1.78:1 FRAME RATE................: 23.976 fps AUDiO CODEC...............: English AC3 5.1 @ 640 Kbps .x264.Info x264 [info]: frame I:286 Avg QP:12.90 size:1103101 x264 [info]: frame P:11260 Avg QP:13.27 size:863161 x264 [info]: frame B:48022 Avg QP:15.19 size:409815 x264 [info]: consecutive B-frames: 1.0% 0.8% 5.1% 12.7% 20.2% 35.2% 8.8% 6. 8% 9.4% x264 [info]: mb I I16..4: 14.8% 62.4% 22.8% x264 [info]: mb P I16..4: 4.4% 31.1% 6.9% P16..4: 17.9% 24.6% 9.7% 0.0% 0 .0% skip: 5.5% x264 [info]: mb B I16..4: 1.5% 7.1% 1.0% B16..8: 26.5% 22.1% 5.1% direct: 16.0% skip:20.7% L0:36.9% L1:39.2% BI:23.9% x264 [info]: 8x8 transform intra:73.4% inter:36.4% x264 [info]: direct mvs spatial:99.8% temporal:0.2% x264 [info]: coded y,uvDC,uvAC intra: 81.8% 86.0% 78.0% inter: 43.2% 39.4% 22.5% x264 [info]: i16 v,h,dc,p: 53% 11% 6% 30% x264 [info]: i8 v,h,dc,ddl,ddr,vr,hd,vl,hu: 8% 11% 19% 9% 9% 9% 10% 10% 15% x264 [info]: i4 v,h,dc,ddl,ddr,vr,hd,vl,hu: 7% 8% 22% 9% 11% 10% 10% 10% 13% x264 [info]: i8c dc,h,v,p: 56% 21% 12% 12% x264 [info]: Weighted P-Frames: Y:14.3% UV:10.2% x264 [info]: kb/s:95681.30 encoded 59568 frames, 0.6007 fps, 95681.29 kb/s, 28338 MB x264 [info]: ended at Fri Jan 03 15:23:35 2014 x264 [info]: encoding duration 27:32:38

    ①网盘资源信息:
    剧情简介:本片画质极佳,得益于高端的拍摄器材,画面干净细腻,锐度惊人!配乐同样优美。随手截图,绝对可以做电脑桌面!雄伟壮观的延时摄影,真实纪录了美洲的国家公园!如果你没体验过斗转星移,日夜星辰...... 那就一起来吧。 这部延时摄影能让您在家里亲临体验着令人窒息的雄伟壮观的美洲国家公园,其中包括阿拉斯加、优胜美地、大峡谷、大索尔、冰川、大提顿、锡安、布莱斯峡谷、拱桥等国家公园。
    9.3

    2018-1-16/4K(3840x2160)

    星际穿越4k

    DIY蓝光原盘版本信息 DISC INFO: Disc Title: Interstellar 2014 ULTRAHD Blu-ray 2160p HEVC DTS-HD MA 5 1 Disc Size: 90,026,752,828 bytes Protection: AACS2 BD-Java: Yes Extras: Ultra HD BDInfo: 0.5.8.7 (compatible layout created by DVDFab 10.0.8.1) PLAYLIST REPORT: Name: 00800.MPLS Length: 2:49:04.217 (h:m:s.ms) Size: 89,322,178,560 bytes Total Bitrate: 70.44 Mbps (*) Indicates included stream hidden by this playlist. VIDEO: Codec Bitrate Description ----- ------- ----------- MPEG-H HEVC Video 51670 kbps 2160p / 23.976 fps / 16:9 / / 4KSJ / Main 10 Profile 5.1 High / 4:2:0 / 10 bits / HDR / BT.2020 / AUDIO: Codec Language Bitrate Description ----- -------- ------- ----------- DTS-HD Master Audio English 3686 kbps 5.1 / 48 kHz / 3686 kbps / 24-bit (DTS Core: 5.1 / 48 kHz / 1509 kbps / 24-bit) Dolby Digital Audio English 640 kbps 5.1 / 48 kHz / 640 kbps Dolby TrueHD Audio Chinese 1810 kbps 5.1 / 48 kHz / 1810 kbps / 16-bit (AC3 Core: 5.1 / 48 kHz / 448 kbps) TANSHU混音THD国配 DTS-HD Master Audio Chinese 1844 kbps 5.1 / 48 kHz / 1844 kbps / 16-bit (DTS Core: 5.1 / 48 kHz / 1509 kbps / 16-bit) 木木混音DTSHD国配 Dolby Digital Audio Chinese 640 kbps 5.1 / 48 kHz / 640 kbps 原版AC3国配 Dolby Digital Audio Spanish 640 kbps 5.1 / 48 kHz / 640 kbps Dolby Digital Audio Spanish 640 kbps 5.1 / 48 kHz / 640 kbps Dolby Digital Audio Portuguese 640 kbps 5.1 / 48 kHz / 640 kbps Dolby Digital Audio Czech 640 kbps 5.1 / 48 kHz / 640 kbps Dolby Digital Audio Polish 640 kbps 5.1 / 48 kHz / 640 kbps Dolby Digital Audio Russian 640 kbps 5.1 / 48 kHz / 640 kbps * Dolby Digital Audio Japanese 640 kbps 5.1 / 48 kHz / 640 kbps SUBTITLES: Codec Language Bitrate Description ----- -------- ------- ----------- Presentation Graphics English 31.226 kbps Presentation Graphics Chinese 54.968 kbps 国配简体特效 Presentation Graphics Chinese 55.144 kbps 国配繁体特效 Presentation Graphics Chinese 86.996 kbps 简英双语特效 Presentation Graphics Chinese 87.277 kbps 繁英双语特效 Presentation Graphics Dutch 24.945 kbps Presentation Graphics Chinese 24.047 kbps 原盘繁体中文 Presentation Graphics Chinese 23.71 kbps 原盘粤语字幕 Presentation Graphics Korean 20.927 kbps Presentation Graphics Spanish 30.013 kbps Presentation Graphics Portuguese 28.818 kbps Presentation Graphics Arabic 14.031 kbps Presentation Graphics Croatian 28.218 kbps Presentation Graphics Czech 24.877 kbps Presentation Graphics Danish 28.102 kbps Presentation Graphics Finnish 22.86 kbps Presentation Graphics Greek 27.297 kbps Presentation Graphics Hebrew 21.703 kbps Presentation Graphics Hungarian 28.734 kbps Presentation Graphics Norwegian 26.266 kbps Presentation Graphics Polish 23.972 kbps Presentation Graphics Portuguese 30.089 kbps Presentation Graphics Romanian 27.364 kbps Presentation Graphics Russian 30.135 kbps Presentation Graphics Swedish 27.197 kbps * Presentation Graphics Japanese 22.213 kbps * Presentation Graphics Japanese 0.031 kbps

    星际穿越4k(2014年)
    9.3
    ①网盘资源信息:
    剧情简介: 近未来的地球黄沙遍野,小麦、秋葵等基础农作物相继因枯萎病灭绝,人类不再像从前那样仰望星空,放纵想象力和灵感的迸发,而是每日在沙尘暴的肆虐下倒数着所剩不多的光景。在家务农的前NASA宇航员库珀(马修·麦康纳 Matthew McConaughey 饰)接连在女儿墨菲(麦肯吉·弗依 Mackenzie Foy 饰)的书房发现奇怪的重力场现象,随即得知在某个未知区域内前NASA成员仍秘密进行一个拯救人类的计划。多年以前土星附近出现神秘虫洞,NASA借机将数名宇航员派遣到遥远的星系寻找适合居住的星球。在布兰德教授(迈克尔·凯恩 Michael Caine 饰)的劝说下,库珀忍痛告别了女儿,和其他三名专家教授女儿艾米莉亚·布兰德(安妮·海瑟薇 Anne Hathaway 饰)、罗米利(大卫·吉雅西 David Gyasi 饰)、多伊尔(韦斯·本特利 Wes Bentley 饰)搭乘宇宙飞船前往目前已知的最有希望的三颗星球考察。   他们穿越遥远的星系银河,感受了一小时七年光阴的沧海桑田,窥见了未知星球和黑洞的壮伟与神秘。在浩瀚宇宙的绝望而孤独角落,总有一份超越了时空的笃定情怀将他们紧紧相连……
    4.9

    2017-10-21/4K(3840x2160)

    变形金刚5:最后的骑士4k

    DISC INFO: Disc Title: Transformers.The.Last.Knight.2017.2160p.BluRay.HEVC.TrueHD.7.1.Atmos-TERMiNAL Disc Size: 96,924,365,984 bytes Protection: AACS2 BD-Java: Yes Extras: Ultra HD BDInfo: 0.5.8.6 PLAYLIST REPORT: Name: 00800.MPLS Length: 2:34:38.769 (h:m:s.ms) Size: 95,740,655,616 bytes Total Bitrate: 62.10 Mbps VIDEO: Codec Bitrate Description —– ——- ———– MPEG-H HEVC Video 74600 kbps 2160p / 23.976 fps / 16:9 / Main 10 Profile 5.1 High / 4:2:0 / 10 bits / HDR / BT.2020 / MPEG-H HEVC Video 6528 kbps 1080p / 23.976 fps / 16:9 / Main 10 Profile 5.1 High / 4:2:0 / 10 bits / HDR / BT.2020 / AUDIO: Codec Language Bitrate Description —– ——– ——- ———– Dolby TrueHD Audio English 4298 kbps 7.1-Atmos / 48 kHz / 4399 kbps / 24-bit (AC3 Core: 5.1-EX / 48 kHz / 448 kbps) Dolby Digital Audio English 640 kbps 5.1 / 48 kHz / 640 kbps / DN -4dB Dolby Digital Audio English 224 kbps 2.0 / 48 kHz / 224 kbps / DN -4dB / Dolby Surround Dolby Digital Audio French 640 kbps 5.1 / 48 kHz / 640 kbps / DN -4dB Dolby Digital Audio Spanish 640 kbps 5.1 / 48 kHz / 640 kbps / DN -4dB Dolby Digital Audio Portuguese 640 kbps 5.1 / 48 kHz / 640 kbps / DN -4dB Dolby Digital Audio English 640 kbps 5.1 / 48 kHz / 640 kbps / DN -4dB SUBTITLES: Codec Language Bitrate Description —– ——– ——- ———– Presentation Graphics English 46.872 kbps Presentation Graphics English 39.901 kbps Presentation Graphics French 38.513 kbps Presentation Graphics Spanish 37.167 kbps Presentation Graphics Portuguese 34.212 kbps

    ①网盘资源信息:
    剧情简介:地球陷入毁灭危机,擎天柱失踪,越来越多的汽车人和霸天虎来到地球,前海豹突击队成员威廉·伦诺克斯( 乔什·杜哈明饰)成为了政府军组建的TRF中的一员,负责绞杀地球上的汽车人——不论好坏。在芝加哥街头,伦诺克斯遇到了凯德·伊格尔(马克·沃尔伯格饰)孤儿伊莎贝拉(伊莎贝拉·莫奈饰)。 凯德因为帮助、支持汽车人而成为政府通缉犯,所以他在一个垃圾场看管着一群幸存的汽车人。与此同时,失踪的擎天柱被女巫昆塔莎黑化,要毁灭地球。拯救世界的责任于是落在了这支由凯德为首的非同寻常的队伍身上,大黄蜂、一位英国爵士(安东尼·霍普金斯饰)还有一位牛津大学教授(劳拉·哈德克饰),一场史诗浩劫彻底将地球变成了战场 。
    8.4

    2018-1-5/4K(3840x2160)

    敦刻尔克4K

    DISC INFO: Disc Title: Dunkirk.2017.2160p.BluRay.HEVC.DTS-HD.MA.5.1-CYBER Disc Size: 59,810,249,992 bytes Protection: AACS2 BD-Java: Yes Extras: Ultra HD BDInfo: 0.5.8.7 (compatible layout created by DVDFab 10.0.7.6) PLAYLIST REPORT: Name: 00100.MPLS Length: 1:46:38.225 (h:m:s.ms) Size: 58,652,129,280 bytes Total Bitrate: 73.34 Mbps VIDEO: Codec Bitrate Description ----- ------- ----------- MPEG-H HEVC Video 58221 kbps 2160p / 23.976 fps / 16:9 / Main 10 Profile 5.1 High / 4:2:0 / 10 bits / HDR / BT.2020 / AUDIO: Codec Language Bitrate Description ----- -------- ------- ----------- DTS-HD Master Audio English 2411 kbps 5.1 / 48 kHz / 2411 kbps / 16-bit (DTS Core: 5.1 / 48 kHz / 1509 kbps / 16-bit) Dolby Digital Audio English 448 kbps 5.1 / 48 kHz / 448 kbps DTS-HD Master Audio French 2412 kbps 5.1 / 48 kHz / 2412 kbps / 16-bit (DTS Core: 5.1 / 48 kHz / 1509 kbps / 16-bit) DTS-HD Master Audio Italian 2440 kbps 5.1 / 48 kHz / 2440 kbps / 16-bit (DTS Core: 5.1 / 48 kHz / 1509 kbps / 16-bit) Dolby Digital Audio Chinese 448 kbps 5.1 / 48 kHz / 448 kbps Dolby Digital Audio Czech 448 kbps 5.1 / 48 kHz / 448 kbps Dolby Digital Audio Hungarian 448 kbps 5.1 / 48 kHz / 448 kbps Dolby Digital Audio Polish 448 kbps 5.1 / 48 kHz / 448 kbps Dolby Digital Audio Russian 448 kbps 5.1 / 48 kHz / 448 kbps Dolby Digital Audio Thai 448 kbps 5.1 / 48 kHz / 448 kbps Dolby Digital Audio Turkish 448 kbps 5.1 / 48 kHz / 448 kbps SUBTITLES: Codec Language Bitrate Description ----- -------- ------- ----------- Presentation Graphics English 18.689 kbps Presentation Graphics French 10.886 kbps Presentation Graphics Italian 16.771 kbps Presentation Graphics Dutch 11.894 kbps Presentation Graphics Chinese 10.833 kbps Presentation Graphics Chinese 16.043 kbps Presentation Graphics Chinese 11.694 kbps Presentation Graphics Korean 7.958 kbps Presentation Graphics Arabic 7.93 kbps Presentation Graphics Croatian 14.129 kbps Presentation Graphics Czech 12.389 kbps Presentation Graphics Danish 12.717 kbps Presentation Graphics Finnish 14.788 kbps Presentation Graphics Greek 16.42 kbps Presentation Graphics Hebrew 9.682 kbps Presentation Graphics Hungarian 13.856 kbps Presentation Graphics Norwegian 11.98 kbps Presentation Graphics Polish 12.117 kbps Presentation Graphics Portuguese 14.838 kbps Presentation Graphics Romanian 13.459 kbps Presentation Graphics Russian 14.018 kbps Presentation Graphics Swedish 13.859 kbps Presentation Graphics Thai 11.612 kbps Presentation Graphics Turkish 14.212 kbps Presentation Graphics French 0.373 kbps Presentation Graphics Italian 0.511 kbps Presentation Graphics Chinese 0.615 kbps Presentation Graphics Czech 0.086 kbps Presentation Graphics Hungarian 0.534 kbps Presentation Graphics Russian 0.888 kbps Presentation Graphics Turkish 0.518 kbps

    敦刻尔克4K(2017年)
    8.4
    ①网盘资源信息:
    剧情简介: 故事改编自著名的二战军事事件“敦刻尔克大撤退”。二战初期,40万英法盟军被敌军围困于敦刻尔克的海滩之上,面对敌军步步逼近的绝境,形势万分危急。英国政府和海军发动大批船员,动员人民起来营救军队。   英国士兵汤米(菲昂·怀特海德 Fionn Whitehead 饰)在逃离海滩的过程中相继结识吉布森与亚历克斯,同时民用船主道森先生(马克·里朗斯 Mark Rylance 饰)与儿子彼得、17岁少年乔治也离开英国,去往敦刻尔克拯救士兵。三人陆续搭救了海军(基里安·墨菲 Cillian Murphy 饰)、飞行员柯林斯及汤米一行人,而战斗机飞行员法瑞尔(汤姆·哈迪 Tom Hardy 饰)则在被敌人双面夹击的艰难情形下顽强战斗。   影片的故事从陆、海、空三个角度讲述,在德国军队的包围下,每个人不得不为自己的命运背水一战,才有可能活着回家。
    9.9

    2017-10-15/4K(3840x2160)

    地球脉动 第二季4k

    DISC 1: Disc Title: DISC1 Disc Size: 56,369,018,880 bytes Protection: AACS2 BD-Java: Yes Extras: Ultra HD BDInfo: 0.5.8.6 (compatible layout created by DVDFab 10.0.6.2) PLAYLIST REPORT: Name: 00163.MPLS Length: 2:36:48.690 (h:m:s.ms) Size: 55,938,359,424 bytes Total Bitrate: 47.56 Mbps VIDEO: Codec Bitrate Description ----- ------- ----------- MPEG-H HEVC Video 42952 kbps 2160p / 23.976 fps / 16:9 / Main 10 Profile 5.1 High / 4:2:0 / 10 bits / HDR / BT.2020 / AUDIO: Codec Language Bitrate Description ----- -------- ------- ----------- DTS-HD Master Audio English 2277 kbps 5.1 / 48 kHz / 2277 kbps / 16-bit (DTS Core: 5.1 / 48 kHz / 1509 kbps / 16-bit) SUBTITLES: Codec Language Bitrate Description ----- -------- ------- ----------- Presentation Graphics English 25.261 kbps DISC 2: Disc Title: DISC2 Disc Size: 56,292,669,440 bytes Protection: AACS2 BD-Java: Yes Extras: Ultra HD BDInfo: 0.5.8.6 (compatible layout created by DVDFab 10.0.6.2) PLAYLIST REPORT: Name: 00163.MPLS Length: 2:34:01.231 (h:m:s.ms) Size: 55,466,573,952 bytes Total Bitrate: 48.02 Mbps VIDEO: Codec Bitrate Description ----- ------- ----------- MPEG-H HEVC Video 42092 kbps 2160p / 23.976 fps / 16:9 / Main 10 Profile 5.1 High / 4:2:0 / 10 bits / HDR / BT.2020 / AUDIO: Codec Language Bitrate Description ----- -------- ------- ----------- DTS-HD Master Audio English 2294 kbps 5.1 / 48 kHz / 2294 kbps / 16-bit (DTS Core: 5.1 / 48 kHz / 1509 kbps / 16-bit) SUBTITLES: Codec Language Bitrate Description ----- -------- ------- ----------- Presentation Graphics English 26.576 kbps

    ①网盘资源信息:
    剧情简介:据外媒The Atlantic 报道,《地球脉动2》将在今年晚些时候正式播出,并继续由英国生物学家David Attenborough担任旁白。   “在2006年播出时,首次全程采用高清摄像机拍摄的《地球脉动》是当时BBC摄制成本最高的一部纪录片。《地球脉动2》将运用同样的前瞻性思维,在过去三年中我们采用超高清4K摄影机拍摄,同时使用了无人机和远程控制拍摄技术。 《地球脉动2》播出后极有可能成为4K电视机的助推器。”   据悉,《地球脉动》第二季将分为6个系列片。 
    电视剧场4K美剧、4K韩剧、4K国产剧应有尽有


    2015-2023 www.4ksj.com  4K世界 |网站地图
    京ICP证160991号 京公网安备11010802015683号 Copyright ©2023 All Rights Reserved.
      *本站提供的所有电影资源均来自互联网,仅限交流使用,请在下载后的2小时内删除,所有版权皆属原公司所有,如果认为本站侵犯了您的版权,请告知,我们会立即删除。