4K世界

电视剧封面:
电视剧名: 曼达洛人第一季4k
年  代: 2019  
国  家: 美国
类  别: 科幻 奇幻 
语  言: 英语
字  幕: 英文原版
上映日期: 2019-11-12
文件格式: mkv    
视频效果: 4K(3840x2160)    
资源大小: 4.71 GB
片  长: 45 分钟
导  演: 塔伊加·维迪提 / 布莱丝·达拉斯·霍华德 / 黛博拉·周 / 瑞克·法穆易瓦 / 戴夫·菲洛尼
剧情简介: 迪士尼首部“星球大战”真人剧集《曼达洛人》(The Mandalorian,暂译)公布导演阵容及首张剧照。导演包括塔伊加·维迪提、布莱丝·达拉斯·霍华德、黛博拉·周(《杰西卡·琼斯》)、瑞克·法穆易瓦([酷毙了])。剧集首集将由乔恩·费儒编剧,戴夫·菲洛尼(《星球大战:义军崛起》)执导。剧集故事讲述在詹戈·费特和波巴·费特之后,另一位战士出现在星球大战的宇宙中。曼德罗林设定在帝国沦陷与第一秩序出现之间。剧集将于明年在迪士尼的流媒体平台播放。
星球大战:曼达洛人 / Star Wars: The Mandalorian/曼达洛人第一季4k The.Mandalorian.S01E01.2160p.WEBRip.x265.10bit.HDR.DDP5.1.Atmos电视剧信息
  1. Video
  2. ID : 1
  3. Format : HEVC
  4. Format/Info : High Efficiency Video Coding
  5. Format profile : Main 10@L5@High
  6. Codec ID : V_MPEGH/ISO/HEVC
  7. Duration : 38 min 46 s
  8. Bit rate : 15.9 Mb/s
  9. Width : 3 840 pixels
  10. Height : 1 608 pixels
  11. Original height : 2 160 pixels
  12. Display aspect ratio : 16:9
  13. Frame rate mode : Constant
  14. Frame rate : 23.976 (24000/1001) FPS
  15. Color space : YUV
  16. Chroma subsampling : 4:2:0
  17. Bit depth : 10 bits
  18. Bits/(Pixel*Frame) : 0.108
  19. Stream size : 4.32 GiB (94%)
  20. Default : Yes
  21. Forced : No
  22. Color range : Limited
  23. Color primaries : BT.2020
  24. Transfer characteristics : PQ
  25. Matrix coefficients : BT.2020 non-constant

  26. Audio
  27. ID : 2
  28. Format : E-AC-3 JOC
  29. Format/Info : Enhanced AC-3 with Joint Object Coding
  30. Commercial name : Dolby Digital Plus with Dolby Atmos
  31. Codec ID : A_EAC3
  32. Duration : 38 min 46 s
  33. Bit rate mode : Constant
  34. Bit rate : 768 kb/s
  35. Channel(s) : 6 channels
  36. Channel layout : L R C LFE Ls Rs
  37. Sampling rate : 48.0 kHz
  38. Frame rate : 31.250 FPS (1536 SPF)
  39. Compression mode : Lossy
  40. Stream size : 213 MiB (5%)
  41. Language : English
  42. Service kind : Complete Main
  43. Default : Yes
  44. Forced : No
  45. Complexity index : 16
  46. Number of dynamic objects : 15
  47. Bed channel count : 1 channel
  48. Bed channel configuration : LFE

  49. Text #1
  50. ID : 3
  51. Format : UTF-8
  52. Codec ID : S_TEXT/UTF8
  53. Codec ID/Info : UTF-8 Plain Text
  54. Title : English
  55. Language : English
  56. Default : No
  57. Forced : No
复制代码


星球大战:曼达洛人 / Star Wars: The Mandalorian/曼达洛人第一季4k The.Mandalorian.S01E01.2160p.WEBRip.x265.10bit.HDR.DDP5.1.Atmos电视剧下载

曼达洛人第一季4k The.Mandalorian.S01.2160p.WEBRip.DDP5.1.Atmos.x265【42.88 GB】
曼达洛人第一季4k The.Mandalorian.S01.2160p.WEBRip.DDP5.1.Atmos.x265-TEPES[rartv].torrent (108.53 KB)
回复

使用道具 举报

全部点评150

longer1000 2022-12-29 08:31 显示全部楼层

longer1000 151

2022-12-29 08:31

感谢楼主的分享
回复 支持 反对

使用道具 举报

lpittest 2022-12-27 08:51 显示全部楼层

lpittest 150

2022-12-27 08:51

谢谢分享。
回复 支持 反对

使用道具 举报

TanXingxing 149

2022-12-9 09:27

这是科幻的吗?有空看看
回复 支持 反对

使用道具 举报

phonex 2022-12-8 22:04 Hao4K手机版 显示全部楼层

phonex 148

2022-12-8 22:04

谢谢楼主无私分享
回复 支持 反对

使用道具 举报

luoweike 2022-12-7 23:10 显示全部楼层

luoweike 147

2022-12-7 23:10

感谢楼主分享
回复 支持 反对

使用道具 举报

nxmyg 2022-11-5 13:32 显示全部楼层

nxmyg 146

2022-11-5 13:32


感谢楼主无私的分享!
回复 支持 反对

使用道具 举报

碧潭飘雪 2022-10-28 15:05 显示全部楼层

碧潭飘雪 145

2022-10-28 15:05

谢谢分享
回复 支持 反对

使用道具 举报

fangtoumas 2022-10-23 00:17 显示全部楼层

fangtoumas 144

2022-10-23 00:17

正美剧,很冷酷,独特的科幻魅力
回复 支持 反对

使用道具 举报

531823207 2022-10-22 10:13 显示全部楼层

531823207 143

2022-10-22 10:13

感谢无私分享,找了好久了,谢谢
回复 支持 反对

使用道具 举报

otaku58 2022-10-18 10:23 显示全部楼层

otaku58 142

2022-10-18 10:23

請問有內附字幕嗎? 謝謝
回复 支持 反对

使用道具 举报

hanke 2022-10-10 19:16 显示全部楼层

hanke 141

2022-10-10 19:16

感谢分享!!!
回复 支持 反对

使用道具 举报

lijin8888 2022-10-6 20:09 显示全部楼层

lijin8888 140

2022-10-6 20:09


感谢楼主分享,太好了
回复 支持 反对

使用道具 举报

天下暴君 139

2022-10-5 16:05

找了很久很久了,没想到这里会有,太好了。
回复 支持 反对

使用道具 举报

zgyxt 2022-10-3 08:20 显示全部楼层

zgyxt 138

2022-10-3 08:20

感谢楼主无私的分享!
回复 支持 反对

使用道具 举报

一毛八 2022-9-27 20:25 显示全部楼层

一毛八 137

2022-9-27 20:25

谢谢楼主分享
回复 支持 反对

使用道具 举报

artanis1203 136

2022-9-25 13:29

感谢分享
回复 支持 反对

使用道具 举报

alexander1231 135

2022-9-23 16:07

感谢楼主分享,一直期待的美剧!
回复 支持 反对

使用道具 举报

duyao123 2021-11-15 14:27 显示全部楼层

duyao123 134

2021-11-15 14:27

感谢楼主的分享
回复 支持 反对

使用道具 举报

   发表点评

您需要登录后才可以回帖 登录 | 立即注册

返回列表 本版积分规则

  • 购买会员

  • 帮助

  • 回顶部