注册/登陆
游客您好
第三方账号登陆
X特遣队:全员集结4K.The.Suicide.Squad.2021.HDR.2160p电影下载
[复制链接]
2021-08-06 发布
  • 4K入门玩家
  • 20
  • 77
like_dick 发表于 2021-8-6 08:41:16 |阅读模式 打印 上一主题 下一主题

X特遣队:全员集结4K
2021年(豆瓣:7.9)
  • 电影声道:5.1声道 
  • 电影语言:英文字幕   
  • 画质标准 HDR 
  • 资源版本  
  • 帧数/FPS:23.976 Fps
    发布排行: 第部4K原盘
    导  演:詹姆斯·古恩
    制片国家:美国 
    电影分类:动作 科幻 冒险 喜剧 
    分 辨 率:4K(3840x2160)
简介关押在美梦监狱的X特遣队成员获得一项可以减轻刑罚的新任务,前往南美洲的科托马耳他岛国,摧毁纳粹时期遗留的约顿海姆监狱和实验室,它当前用于关押该国的政治犯并施行人体实验。执行任务期间,X特遣队遭遇巨型外星生物海星斯塔罗,并与它发生冲突。
新自杀小队 / 自杀特攻(港) / 自杀突击队集结(台) / 自杀小队2 / X特遣队2 / 自杀突击队2 / Suicide Squad 2/X特遣队:全员集结4K.The.Suicide.Squad.2021.HDR.2160p.WEB.H265-4K电影信息
  1. Video,
  2. ID : 1
  3. Format : HEVC
  4. Format/Info : High Efficiency Video Coding
  5. Format profile : Main 10@L5@Main
  6. HDR format : SMPTE ST 2086, HDR10 compatible
  7. Codec ID : V_MPEGH/ISO/HEVC
  8. Duration : 2 h 12 min
  9. Bit rate : 17.9 Mb/s
  10. Width : 3 840 pixels
  11. Height : 2 160 pixels
  12. Display aspect ratio : 16:9
  13. Frame rate mode : Constant
  14. Frame rate : 23.976 (24000/1001) FPS
  15. Color space : YUV
  16. Chroma subsampling : 4:2:0
  17. Bit depth : 10 bits
  18. Bits/(Pixel*Frame) : 0.090
  19. Stream size : 16.5 GiB (96%)
  20. Writing library : x265 3.4hy:[Linux][GCC 7.5.0][64 bit] 10bit
  21. Encoding settings : cpuid=1111039 / frame-threads=1 / wpp / no-pmode / no-pme / no-psnr / no-ssim / log-level=2 / input-csp=1 / input-res=3840x2160 / interlace=0 / total-frames=0 / level-idc=0 / high-tier=1 / uhd-bd=0 / ref=4 / no-allow-non-conformance / repeat-headers / annexb / no-aud / no-hrd / info / hash=0 / no-temporal-layers / no-open-gop / min-keyint=96 / keyint=96 / gop-lookahead=0 / bframes=3 / b-adapt=2 / b-pyramid / bframe-bias=0 / rc-lookahead=25 / lookahead-slices=4 / scenecut=40 / hist-scenecut=0 / radl=0 / no-splice / no-intra-refresh / ctu=64 / min-cu-size=8 / rect / no-amp / max-tu-size=32 / tu-inter-depth=1 / tu-intra-depth=1 / limit-tu=0 / rdoq-level=2 / dynamic-rd=0.00 / no-ssim-rd / signhide / no-tskip / nr-intra=0 / nr-inter=0 / no-constrained-intra / strong-intra-smoothing / max-merge=3 / limit-refs=3 / limit-modes / me=3 / subme=3 / merange=57 / temporal-mvp / no-frame-dup / no-hme / weightp / no-weightb / no-analyze-src-pics / deblock=0:0 / sao / no-sao-non-deblock / rd=4 / selective-sao=4 / no-early-skip / rskip / no-fast-intra / no-tskip-fast / no-cu-lossless / no-b-intra / no-splitrd-skip / rdpenalty=0 / psy-rd=2.00 / psy-rdoq=1.00 / no-rd-refine / no-lossless / cbqpoffs=0 / crqpoffs=0 / rc=abr / bitrate=18000 / qcomp=0.60 / qpstep=4 / stats-write=0 / stats-read=2 / cplxblur=20.0 / qblur=0.5 / vbv-maxrate=24500 / vbv-bufsize=24500 / vbv-init=0.6 / vbv-end=0.6 / vbv-end-fr-adj=0.0 / ipratio=1.40 / pbratio=1.30 / aq-mode=2 / aq-strength=1.00 / cutree / zone-count=0 / no-strict-cbr / qg-size=32 / no-rc-grain / qpmax=69 / qpmin=0 / no-const-vbv / sar=0 / overscan=0 / videoformat=5 / range=0 / colorprim=9 / transfer=16 / colormatrix=9 / chromaloc=0 / display-window=0 / master-display=G(13250,34500)B(7500,3000)R(34000,16000)WP(15635,16450)L(10000000,1) / cll=571,257 / min-luma=0 / max-luma=1023 / log2-max-poc-lsb=8 / vui-timing-info / vui-hrd-info / no-concatenation / slices=1 / no-opt-qp-pps / no-opt-ref-list-length-pps / no-multi-pass-opt-rps / scenecut-bias=0.05 / hist-threshold=0.01 / no-opt-cu-delta-qp / no-aq-motion / hdr10 / no-hdr10-opt / no-dhdr10-opt / no-idr-recovery-sei / analysis-reuse-level=0 / analysis-save-reuse-level=0 / analysis-load-reuse-level=0 / scale-factor=0 / refine-intra=0 / refine-inter=0 / refine-mv=1 / refine-ctu-distortion=0 / no-limit-sao / ctu-info=0 / no-lowpass-dct / refine-analysis-type=0 / copy-pic=1 / max-ausize-factor=1.0 / no-dynamic-refine / no-single-sei / no-hevc-aq / no-svt / no-field / qp-adaptation-range=1.00 / no-scenecut-aware-qpconformance-window-offsets / right=0 / bottom=0 / decoder-max-rate=0
  22. Default : Yes
  23. Forced : No
  24. Color range : Limited
  25. Color primaries : BT.2020
  26. Transfer characteristics : PQ
  27. Matrix coefficients : BT.2020 non-constant
  28. Mastering display color primaries : Display P3
  29. Mastering display luminance : min: 0.0001 cd/m2, max: 1000 cd/m2
  30. Maximum Content Light Level : 571 cd/m2
  31. Maximum Frame-Average Light Level : 257 cd/m2

  32. Audio
  33. ID : 2
  34. Format : E-AC-3 JOC
  35. Format/Info : Enhanced AC-3 with Joint Object Coding
  36. Commercial name : Dolby Digital Plus with Dolby Atmos
  37. Codec ID : A_EAC3
  38. Duration : 2 h 12 min
  39. Bit rate mode : Constant
  40. Bit rate : 768 kb/s
  41. Channel(s) : 6 channels
  42. Channel layout : L R C LFE Ls Rs
  43. Sampling rate : 48.0 kHz
  44. Frame rate : 31.250 FPS (1536 SPF)
  45. Compression mode : Lossy
  46. Stream size : 726 MiB (4%)
  47. Title : English
  48. Language : English
  49. Service kind : Complete Main
  50. Default : Yes
  51. Forced : No
  52. Complexity index : 16
  53. Number of dynamic objects : 15
  54. Bed channel count : 1 channel
  55. Bed channel configuration : LFE

  56. Text #1
  57. ID : 3
  58. Format : UTF-8
  59. Codec ID : S_TEXT/UTF8
  60. Codec ID/Info : UTF-8 Plain Text
  61. Duration : 2 h 11 min
  62. Bit rate : 40 b/s
  63. Count of elements : 1482
  64. Stream size : 39.0 KiB (0%)
  65. Title : English
  66. Language : English
  67. Default : No
  68. Forced : No

  69. Text #2
  70. ID : 4
  71. Format : UTF-8
  72. Codec ID : S_TEXT/UTF8
  73. Codec ID/Info : UTF-8 Plain Text
  74. Duration : 2 h 11 min
  75. Bit rate : 58 b/s
  76. Count of elements : 2050
  77. Stream size : 55.9 KiB (0%)
  78. Title : English SDH
  79. Language : English
  80. Default : No
  81. Forced : No
复制代码


新自杀小队 / 自杀特攻(港) / 自杀突击队集结(台) / 自杀小队2 / X特遣队2 / 自杀突击队2 / Suicide Squad 2/X特遣队:全员集结4K.The.Suicide.Squad.2021.HDR.2160p.WEB.H265-4K电影下载

X特遣队:全员集结4K.The.Suicide.Squad.2021.HDR.2160p.WEB.H265【4K HDR 17.37 GB】


X特遣队:全员集结4K.The.Suicide.Squad.2021.2160p.HMAX.WEB-DL.DDP5.1.Atmos.DV.MP4.x265 【杜比视界 17.25 GB】


特遣队:全员集结4K电影双语中文字幕下载 感谢K友@苏默金武分享的字幕
https://www.4ksj.com/thread-60364-1-1.html

X特遣队:全员集结4K电影 机翻抢快版 简繁中字  感谢K友@56789trewq分享的字幕
https://www.4ksj.com/thread-60336-1-1.html

DC系列4K UHD 2160p蓝光原盘电影合辑下载
https://www.4ksj.com/zt/DC.html

推荐下载:
丛林奇航4K.Jungle.Cruise.2021.2160p电影下载
https://www.4ksj.com/thread-60063-1-1.html

黑寡妇4K.Black.Widow.2021.2160p电影下载
https://www.4ksj.com/thread-59508-1-3.html

精彩评论441

Asviper 发表于 2021-8-6 19:31:12
要想不关小黑屋,不要总发666,看到我了没,不要轻易模仿。
参与人数 3活跃 +3 +2 收起 理由
szy676767 + 1 + 1 谢谢分享!
zw867725001 + 1 谢谢分享!
月C + 1 + 1 楼主大大在吗............ 【4K HDR 17.37 GB】 迅雷

查看全部评分总评分 : 活跃 +3 +2

回复 支持 12 反对 0

使用道具 举报

tengxunsha13 发表于 2021-8-6 20:53:48
噢噢噢噢噢噢噢噢噢噢噢噢!
参与人数 1K币 -10 +1 收起 理由
Niko -10 + 1 违反论坛规则:无阅读意义内容(第五章第5条)

查看全部评分总评分 : K币 -10 +1

回复 支持 反对

使用道具 举报

shadababa 发表于 2021-8-7 09:37:35
ddddddddddd
参与人数 2活跃 +1 K币 -10 +1 收起 理由
lengjing1314 + 1 违反论坛规则:无阅读意义内容(第五章第5条)
Niko -10 + 1 违反论坛规则:无阅读意义内容(第五章第5条)

查看全部评分总评分 : 活跃 +1 K币 -10 +1

回复 支持 反对

使用道具 举报

superdang 发表于 2021-8-6 08:44:03
立马开始下载。不知道带不带字幕
回复 支持 1 反对 0

使用道具 举报

OberonChen 发表于 2021-8-6 08:50:16
这是快到连名字都还没加载出来啊{:4_96:}
回复 支持 1 反对 0

使用道具 举报

luckhawk 发表于 2021-8-6 08:52:50
估计没字幕
回复 支持 反对

使用道具 举报

yaobinbin 发表于 2021-8-6 08:54:49
流弊哦哦哦快yyds
回复 支持 反对

使用道具 举报

Loatr0618 发表于 2021-8-6 08:56:48
等个中字啊呀。。。
回复 支持 反对

使用道具 举报

陆生 发表于 2021-8-6 08:59:58
立马开始下载。不知道带不带字幕
回复 支持 反对

使用道具 举报

Moore93 发表于 2021-8-6 09:01:21
传说口碑不是挺好的吗,豆瓣咋才5.5
回复 支持 0 反对 1

使用道具 举报

NekolLee 发表于 2021-8-6 09:02:26
也太快了吧{:4_96:}
回复 支持 0 反对 0

使用道具 举报

68威士忌 发表于 2021-8-6 09:03:48

各位大神,你们都是用什么软件下载的
回复 支持 反对

使用道具 举报

68威士忌 发表于 2021-8-6 09:04:58
superdang 发表于 2021-8-6 08:44
立马开始下载。不知道带不带字幕

你们都是用什么软件下载的
回复 支持 1 反对 0

使用道具 举报

alexzuo119 发表于 2021-8-6 09:05:20
好东西啊,快速下载
回复 支持 反对

使用道具 举报

jgpdyx 发表于 2021-8-6 09:16:21
好快啊,楼主武威!!!!!
回复 支持 反对

使用道具 举报

ryohazuki33 发表于 2021-8-6 09:23:52
X 小队,满足了,哈哈哈哈
回复 支持 反对

使用道具 举报

mh690113 发表于 2021-8-6 09:24:00
等字幕出来再下.
回复 支持 反对

使用道具 举报

a990027283 发表于 2021-8-6 09:35:58
谢谢分享!!!!
回复 支持 反对

使用道具 举报

snooprabbit 发表于 2021-8-6 09:36:33
快的一批
回复 支持 反对

使用道具 举报

amin6617 发表于 2021-8-6 09:39:15
谢谢,先要去下载汉化文件
回复 支持 1 反对 0

使用道具 举报

您需要登录后才可以回帖 登录 | 立即注册

本版积分规则

推荐影视全站推荐影视下载
  • 6.1

    前天 19:08/4K(3840x2160)

    哈丽特4k

    Disc Title: HARRIET Disc Label: Harriet.2019.2160p.UHD.Blu-ray.HEVC.TrueHD.Atmos.7.1 Disc Size: 57,624,940,050 bytes Protection: AACS2 Playlist: 00000.MPLS Size: 52,566,663,168 bytes Length: 2:05:07.082 Total Bitrate: 56.02 Mbps Video: MPEG-H HEVC Video / 46999 kbps / 2160p / 23.976 fps / 16:9 / Main 10 @ Level 5.1 @ High / 10 bits / HDR10 / BT.2020 Audio: English / Dolby TrueHD/Atmos Audio / 7.1 / 48 kHz / 3331 kbps / 16-bit (AC3 Embedded: 5.1 / 48 kHz / 448 kbps / DN -27dB) Audio: French / Dolby Digital Audio / 5.1 / 48 kHz / 640 kbps / DN -27dB Audio: Spanish / Dolby Digital Plus Audio / 7.1 / 48 kHz / 768 kbps / DN -27dB (AC3 Embedded: 5.1 / 48 kHz / 448 kbps / DN -27dB) Audio: English / Dolby Digital Audio / 2.0 / 48 kHz / 192 kbps / DN -27dB Subtitle: English / 34.163 kbps Subtitle: French / 30.708 kbps Subtitle: Spanish / 28.135 kbps Subtitle: French / 0.850 kbps Subtitle: Spanish / 1.099 kbps

    哈丽特4k(2019年)
    6.1
    ①网盘资源信息:
    剧情简介:乔·阿尔文、小莱斯利·奥多姆将加盟传记影片[哈丽特],先前宣布加盟的卡司包括辛西娅·埃里沃、克拉克·彼得斯等。塞斯·曼恩(《国土安全》)执导。哈丽特·塔布曼生于1822年,原本是生活在马里兰州的黑奴,1849年她逃到北方,不久后加入到帮助奴隶逃亡的美国“地下铁路”中,成为最活跃的领袖之一,多次回到家乡带领其他奴隶逃往北方。南北战争爆发后,塔布曼积极参战,成为北军中为数不多的女性,战后她投身了争取妇女权益的运动。哈丽特也是首位登上美元的女性。影片将于下月在美国弗吉尼亚州开拍。
    7.0

    3 天前/4K(3840x2160)

    饥饿游戏:鸣鸟与蛇之歌4K

    Video #1 ID: 4113 (0x1011) Menu ID: 1 (0x1) Format: HEVC Format/Info: High Efficiency Video Coding Format profile: Main 10@L5.1@High HDR format: SMPTE ST 2086, HDR10 compatible Codec ID: 36 Duration: 2h 37m Width: 3840 pixels Height: 2160 pixels Display aspect ratio: 16:9 Frame rate: 23.976 (24000/1001) FPS Color space: YUV Chroma subsampling: 4:2:0 (Type 2) Bit depth: 10 bits Color range: Limited Color primaries: BT.2020 Transfer characteristics: PQ Matrix coefficients: BT.2020 non-constant Mastering display color primaries: Display P3 Mastering display luminance: min: 0.0001 cd/m2, max: 1000 cd/m2 Maximum Content Light Level: 999 cd/m2 Maximum Frame-Average Light Level: 122 cd/m2 Video #2 (Dolby Vision) ID: 4117 (0x1015) Menu ID: 1 (0x1) Format: HEVC Format/Info: High Efficiency Video Coding Format profile: Main 10@L5.1@High HDR format: SMPTE ST 2086, HDR10 compatible Codec ID: 36 Duration: 2h 37m Width: 1920 pixels Height: 1080 pixels Display aspect ratio: 16:9 Frame rate: 23.976 (24000/1001) FPS Color space: YUV Chroma subsampling: 4:2:0 (Type 2) Bit depth: 10 bits Color range: Limited Color primaries: BT.2020 Transfer characteristics: PQ Matrix coefficients: BT.2020 non-constant Mastering display color primaries: Display P3 Mastering display luminance: min: 0.0001 cd/m2, max: 1000 cd/m2 Audio #1 ID: 4352 (0x1100) Menu ID: 1 (0x1) Format: MLP FBA AC-3 16-ch Format/Info: Meridian Lossless Packing FBA with 16-channel presentation Commercial name: Dolby TrueHD with Dolby Atmos Muxing mode: Stream extension Codec ID: 131 Duration: 2h 37m Bit rate mode: Variable Bit rate: 640 kb/s Maximum bit rate: 7395 kb/s Channel(s): 8 channels Channel layout: L R C LFE Ls Rs Lb Rb Sampling rate: 48.0 kHz Frame rate: 31.250 FPS (1536 SPF) Compression mode: Lossless Stream size: 719 MiB (1%) Service kind: Complete Main Number of dynamic objects: 11 Bed channel count: 1 channel Bed channel configuration: LFE

    ①网盘资源信息:
    剧情简介:8岁的科里奥兰纳斯·斯诺(汤姆·布莱斯 饰)被选为第十届饥饿游戏的导师,与来自第十二区的贫困女孩露西·格蕾·贝尔德(瑞秋·齐格勒 饰)成为了“生死相依”的命运共同体。竞技场上,这是一场关乎自由、食物,甚至是尊重与权利的生死角逐;竞技场外,不忍与善意使斯诺决定不顾一切帮助露西在这场游戏中赢得胜利......当活下去的欲望与所遵守的规则背道而驰,命运的齿轮紧抓入自己手中时,他又该如何抉择?   影片改编自苏珊·柯林斯的同名小说。
    8.6

    7 天前/4K(3840x2160)

    王立宇宙军:欧尼亚米斯之翼4k

    DISC INFO: Disc Title: Royal.Space.Force.Wings.of.Honneamise.1987.2160p.UHD.Blu-ray.HEVC.TrueHD5.1-4ksj Disc Size: 97,507,860,070 bytes Protection: AACS2 Extras: Ultra HD BDInfo: 0.7.6.1 (compatible layout created by DVDFab 12.1.1.5) PLAYLIST REPORT: Name: 00001.MPLS Length: 1:59:50.183 (h:m:s.ms) Size: 96,049,711,104 bytes Total Bitrate: 106.87 Mbps VIDEO: Codec Bitrate Description ----- ------- ----------- MPEG-H HEVC Video 94676 kbps 2160p / 23.976 fps / 16:9 / Main 10 @ Level 5.1 @ High / 4:2:0 / 10 bits / 1000nits / HDR10 / BT.2020 AUDIO: Codec Language Bitrate Description ----- -------- ------- ----------- LPCM Audio Japanese 2304 kbps 2.0 / 48 kHz / 2304 kbps / 24-bit Dolby TrueHD Audio Japanese 2376 kbps 5.1 / 48 kHz / 1736 kbps / 16-bit (AC3 Core: 5.1 / 48 kHz / 640 kbps) LPCM Audio English 1536 kbps 2.0 / 48 kHz / 1536 kbps / 16-bit SUBTITLES: Codec Language Bitrate Description ----- -------- ------- ----------- Presentation Graphics English 28.952 kbps Presentation Graphics Japanese 19.983 kbps Presentation Graphics Chinese 30.536 kbps Presentation Graphics Chinese 31.649 kbps

    ①网盘资源信息:
    剧情简介:在奥内米斯王国里,有一支本应担任宇宙探险飞行的军队——王立宇宙军。但由于种种因素,他们始终只是一支无所作为的军队,甚至被其他军队视为废物。原本安于现状,只是在军队中混日子的年轻士官希洛兹(森本玲夫 配音),与美丽的少女莉库妮(弥生みつき 配音)邂逅,被她的单纯与虔诚所吸引,逐渐开始改变自己的人生态度——成为第一个探索宇宙的人,让“王立宇宙军”成为名副其实的宇宙探索者。   但现实是残酷的,奥内米斯王国内部的腐败使他们的信念一次次受挫,似乎人们都更关注于地面上丑陋的斗争,虽然王立宇宙军最后得到了飞行的机会,但那确是帝国内部的阴谋,企图牺牲希洛兹搭乘的火箭,以作为和邻国开战的借口。即便这样,希洛兹还是坐上了火箭,他能否看到太空中的日出呢……
    6.2

    3 天前/4K(3840x2160)

    金手指4k

    General............: The.Goldfinger.2023.2160p.HQ.WEB-DL.H265.60fps.DDP5.1.2Audio-4ksj Duration...........: 02:05:47.031 (HH:MM:SS:FF) RELEASE.SIZE.......: 23.6 GiB VIDEO.CODEC........: HEVC Main 10@L5.1@Main FRAMERATE..........: 60.000 fps VIDEO.BITRATE......: 24.9 Mb/s RESOLUTION.........: 3840 x 1608 ASPECT.RATIO.......: 2.40:1 Audio..............: E-AC-3 6 channels 448 kb/s Chinese Cantonese [DDP5.1] Audio..............: E-AC-3 6 channels 448 kb/s Chinese Mandarin [DDP5.1] Audio..............: E-AC-3 2 channels 256 kb/s Chinese Cantonese [DDP2.0] Audio..............: E-AC-3 2 channels 256 kb/s Chinese Mandarin [DDP2.0] Audio..............: AAC 2 channels 256 kb/s Chinese Cantonese [AAC2.0] Audio..............: AAC 2 channels 256 kb/s Chinese Mandarin [AAC2.0]

    金手指4k(2023年)
    6.2
    ①网盘资源信息:
    剧情简介:用100元的投入换来百亿奢靡人生,看穷小子不择手段颠覆规则将财富和权势玩弄于股掌之中!上市公司嘉文集团在短短几年间从默默无名到风生水起,再到没落清盘,市值蒸发超过一百亿。幕后老板程一言(梁朝伟 饰)也从万众瞩目的股民偶像变成人人喊打的过街老鼠。高级调查主任刘启源(刘德华 饰)长达十五年锲而不舍地搜证和跨境调查,消耗超过两亿诉讼费,竟发现局中有局案中有案,牵涉数条人命并波及香港整个上流社会,究竟谁在幕后?谁能逃脱?谁会出局?
    7.9

    5 天前/4K(3840x2160)

    西雅图未眠夜4k

    Video: MPEG-H HEVC Video / 77338 kbps / 2160p / 23.976 fps / 16:9 / Main 10 @ Level 5.1 @ High / 4:2:0 / 10 bits / 2000nits / HDR10 / BT.2020 Video: * MPEG-H HEVC Video / 2100 kbps / 1080p / 23.976 fps / 16:9 / Main 10 @ Level 5.1 @ High / 4:2:0 / 10 bits / 2000nits / Dolby Vision FEL / BT.2020 Audio: English / Dolby TrueHD/Atmos Audio / 7.1+11 objects / 48 kHz / 3948 kbps / 24-bit (AC3 Core: 5.1 / 48 kHz / 640 kbps) Audio: English / DTS-HD Master Audio / 5.1 / 48 kHz / 2148 kbps / 16-bit (DTS Core: 5.1 / 48 kHz / 1509 kbps / 16-bit) Audio: English / DTS-HD Master Audio / 2.0 / 48 kHz / 1555 kbps / 16-bit (DTS Core: 2.0 / 48 kHz / 1509 kbps / 16-bit) Audio: French / DTS-HD Master Audio / 2.0 / 48 kHz / 1555 kbps / 16-bit (DTS Core: 2.0 / 48 kHz / 1509 kbps / 16-bit) Audio: French / DTS-HD Master Audio / 2.0 / 48 kHz / 1556 kbps / 16-bit (DTS Core: 2.0 / 48 kHz / 1509 kbps / 16-bit) Audio: German / DTS-HD Master Audio / 2.0 / 48 kHz / 1556 kbps / 16-bit (DTS Core: 2.0 / 48 kHz / 1509 kbps / 16-bit) Audio: Italian / DTS-HD Master Audio / 2.0 / 48 kHz / 1555 kbps / 16-bit (DTS Core: 2.0 / 48 kHz / 1509 kbps / 16-bit) Audio: Korean / DTS-HD Master Audio / 2.0 / 48 kHz / 1561 kbps / 16-bit (DTS Core: 2.0 / 48 kHz / 1509 kbps / 16-bit) Audio: Spanish / DTS-HD Master Audio / 2.0 / 48 kHz / 1557 kbps / 16-bit (DTS Core: 2.0 / 48 kHz / 1509 kbps / 16-bit) Audio: Spanish / Dolby Digital Audio / 2.0 / 48 kHz / 192 kbps / Dolby Surround Audio: Thai / DTS-HD Master Audio / 2.0 / 48 kHz / 1558 kbps / 16-bit (DTS Core: 2.0 / 48 kHz / 1509 kbps / 16-bit) Audio: Turkish / DTS-HD Master Audio / 2.0 / 48 kHz / 1559 kbps / 16-bit (DTS Core: 2.0 / 48 kHz / 1509 kbps / 16-bit) Subtitle: English / 44.139 kbps Subtitle: English / 33.446 kbps Subtitle: English / 44.151 kbps Subtitle: English / 33.461 kbps Subtitle: Arabic / 17.208 kbps Subtitle: Chinese / 24.02 kbps Subtitle: Chinese / 29.461 kbps Subtitle: Danish / 25.709 kbps Subtitle: Dutch / 26.198 kbps Subtitle: Finnish / 27.629 kbps Subtitle: French / 28.433 kbps Subtitle: German / 28.544 kbps Subtitle: Italian / 26.934 kbps Subtitle: Korean / 21.502 kbps Subtitle: Norwegian / 25.264 kbps Subtitle: Portuguese / 26.138 kbps Subtitle: Spanish / 25.553 kbps Subtitle: Spanish / 31.147 kbps Subtitle: Swedish / 22.422 kbps Subtitle: Thai / 31.84 kbps Subtitle: Turkish / 29.039 kbps Subtitle: French / 0.638 kbps

    西雅图未眠夜4k(90年代)
    7.9
    ①网盘资源信息:
    剧情简介:自从妻子去世后,萨姆(汤姆·汉克斯 Tom Hanks饰)就相信自己此生的爱已经走到了尽头,不会再有新的恋情走进心中,他在西雅图和儿子乔纳一起平静的生活。而乔纳,却一直希望爸爸能够开始新的婚姻,重获生活的阳光。   抱着这样的想法,乔纳在圣诞夜打电话到电台的情感热线。就这样,萨姆的经历在此夜传遍了各个角落,很多人在倾听他的故事,其中包括安妮(梅格·瑞安 Meg Ryan饰)——一个住在东部的女记者。她善良,温柔,有一个知心的好友,和一个即将结婚的男友。然而,幸福的生活就被这个电话彻底打破了。她的内心有一种冲动,让她一步步地接近这个远在西部的男人。   然而,一次次辗转的错过让萨姆和安妮迟迟不能会面。屡次在缘份的天空下失诸交臂的二人,一直为爱而奔波,等待一个遇见的机缘。
2015-2023 www.4ksj.com  4K世界 |网站地图
京ICP证160991号 京公网安备11010802015683号 Copyright ©2023 All Rights Reserved.
    *本站提供的所有电影资源均来自互联网,仅限交流使用,请在下载后的2小时内删除,所有版权皆属原公司所有,如果认为本站侵犯了您的版权,请告知,我们会立即删除。