注册/登陆
游客您好
第三方账号登陆
[美剧] 基地4k Foundation.S01E01.2160p杜比视界美剧下载
[复制链接]
2021-09-26 发布
  • 4K入门玩家
  • 20
  • 823
大红色 发表于 2021-9-26 11:00:36 |阅读模式 打印 上一主题 下一主题
银河帝国:基地 / 银河帝国基地/基地4k Foundation.S01E01.2160p.ATVP.WEB-DL.DDP5.1.Atmos.DV.MP4.x265美剧信息
  1. Video
  2. ID : 1
  3. Format : HEVC
  4. Format/Info : High Efficiency Video Coding
  5. Format profile : Main 10@L5@High
  6. HDR format : Dolby Vision, Version 1.0, dvhe.05.06, BL+RPU
  7. Codec ID : dvhe
  8. Codec ID/Info : High Efficiency Video Coding with Dolby Vision
  9. Duration : 1 h 9 min
  10. Bit rate : 24.5 Mb/s
  11. Width : 3 840 pixels
  12. Height : 1 920 pixels
  13. Display aspect ratio : 2.000
  14. Frame rate mode : Constant
  15. Frame rate : 23.976 (24000/1001) FPS
  16. Color space : YUV
  17. Chroma subsampling : 4:2:0
  18. Bit depth : 10 bits
  19. Bits/(Pixel*Frame) : 0.139
  20. Stream size : 11.9 GiB (97%)
  21. Default : Yes
  22. Alternate group : 1
  23. Encoded date : UTC 2021-09-24 06:12:42
  24. Tagged date : UTC 2021-09-24 06:13:51
  25. Codec configuration box : hvcC+dvcC

  26. Audio
  27. ID : 2
  28. Format : E-AC-3 JOC
  29. Format/Info : Enhanced AC-3 with Joint Object Coding
  30. Commercial name : Dolby Digital Plus with Dolby Atmos
  31. Codec ID : ec-3
  32. Duration : 1 h 9 min
  33. Bit rate mode : Constant
  34. Bit rate : 768 kb/s
  35. Maximum bit rate : 811 kb/s
  36. Channel(s) : 6 channels
  37. Channel layout : L R C LFE Ls Rs
  38. Sampling rate : 48.0 kHz
  39. Frame rate : 31.250 FPS (1536 SPF)
  40. Compression mode : Lossy
  41. Stream size : 380 MiB (3%)
  42. Title : English
  43. Language : English
  44. Service kind : Complete Main
  45. Default : Yes
  46. Alternate group : 1
  47. Tagged date : UTC 2021-09-24 06:13:51
  48. Complexity index : Not present / 16
  49. Number of dynamic objects : 15
  50. Bed channel count : 1 channel
  51. Bed channel configuration : LFE

  52. Text #1
  53. ID : 3
  54. Format : Timed Text
  55. Codec ID : tx3g
  56. Duration : 1 h 7 min
  57. Bit rate mode : Variable
  58. Bit rate : 63 b/s
  59. Stream size : 31.4 KiB (0%)
  60. Title : English
  61. Language : English
  62. Forced : No
  63. Encoded date : UTC 2021-09-24 06:13:48
  64. Tagged date : UTC 2021-09-24 06:13:51

  65. Text #2
  66. ID : 4
  67. Format : Timed Text
  68. Codec ID : tx3g
  69. Duration : 1 h 9 min
  70. Bit rate mode : Variable
  71. Bit rate : 87 b/s
  72. Stream size : 44.0 KiB (0%)
  73. Title : Arabic
  74. Language : Arabic
  75. Forced : No
  76. Encoded date : UTC 2021-09-24 06:13:48
  77. Tagged date : UTC 2021-09-24 06:13:51

  78. Text #3
  79. ID : 5
  80. Format : Timed Text
  81. Codec ID : tx3g
  82. Duration : 1 h 9 min
  83. Bit rate mode : Variable
  84. Bit rate : 95 b/s
  85. Stream size : 48.4 KiB (0%)
  86. Title : Bulgarian
  87. Language : Bulgarian
  88. Forced : No
  89. Encoded date : UTC 2021-09-24 06:13:48
  90. Tagged date : UTC 2021-09-24 06:13:51

  91. Text #4
  92. ID : 6
  93. Format : Timed Text
  94. Codec ID : tx3g
  95. Duration : 1 h 9 min
  96. Bit rate mode : Variable
  97. Bit rate : 58 b/s
  98. Stream size : 29.6 KiB (0%)
  99. Title : Chinese-Cantonese
  100. Language : Chinese
  101. Forced : No
  102. Encoded date : UTC 2021-09-24 06:13:49
  103. Tagged date : UTC 2021-09-24 06:13:51

  104. Text #5
  105. ID : 7
  106. Format : Timed Text
  107. Codec ID : tx3g
  108. Duration : 1 h 9 min
  109. Bit rate mode : Variable
  110. Bit rate : 58 b/s
  111. Stream size : 29.3 KiB (0%)
  112. Title : Chinese-Simplified
  113. Language : Chinese
  114. Forced : No
  115. Encoded date : UTC 2021-09-24 06:13:49
  116. Tagged date : UTC 2021-09-24 06:13:51
复制代码

银河帝国:基地 / 银河帝国基地/基地4k Foundation.S01E01.2160p.ATVP.WEB-DL.DDP5.1.Atmos.DV.MP4.x265美剧下载

基地4k Foundation.2021.S01.2160p.ATVP.WEB-DL.DDP5.1.Atmos.DV.MKV.x265杜比视界简繁中字【98.96GB】


基地4k Foundation.2021.S01.2160p.ATVP.WEB-DL.DDP5.1.Atmos.DV.MP4.x265杜比视界简繁中字【98.97 GB】


基地4k Foundation.S01E01.HDR.2160p.WEB.H265


基地4k Foundation.S01E01.2160p.ATVP.WEB-DL.DDP5.1.Atmos.DV.MP4.x265杜比视界简繁中字【12.23 GB】


基地4k Foundation.S01E01.2160p.ATVP.WEB-DL.DDP5.1.Atmos.DV.MKV.x265杜比视界简繁中字【12.23 GB】


基地4k Foundation.S01E02.2160p.ATVP.WEB-DL.DDP5.1.Atmos.DV.MKV.x265【10.88GB】


基地4k Foundation.S01E02.2160p.ATVP.WEB-DL.DDP5.1.Atmos.DV.MP4.x265杜比视界简繁中字【10.88GB】


基地4k Foundation.S01E02.HDR.2160p.WEB.H265简繁中字【10.83GB】


基地4k Foundation.S01E03.2160p.ATVP.WEB-DL.DDP5.1.Atmos.DV.MKV.x265【8.66 GB】


基地4k Foundation.S01E03.2160p.ATVP.WEB-DL.DDP5.1.Atmos.DV.MP4.x265【8.66 GB】


基地4k Foundation.S01E03.HDR.2160p.WEB.H265【8.61GB】


基地4k Foundation.S01E04.HDR.2160p.WEB.H265【7.96GB】


基地4k Foundation.S01E04.2160p.WEB.H265【6.96GB】


基地4k Foundation.S01E05.HDR.2160p.WEB.H265【9.40GB】


基地4k Foundation.S01E05.2160p.WEB.H265【7.99GB】


基地4k Foundation.S01E05.2160p.ATVP.WEB-DL.DDP5.1.Atmos.DV.MP4.x265杜比视界【9.64GB】


基地4k Foundation.S01E05.2160p.ATVP.WEB-DL.DDP5.1.Atmos.DV.MKV.x265杜比视界【9.64GB】


基地4k Foundation.S01E06.2160p.WEB.H265【8.30GB】


基地4k Foundation.S01E06.2160p.ATVP.WEB-DL.DDP5.1.Atmos.x265【8.31GB】


基地4k Foundation.S01E06.2160p.ATVP.WEB-DL.DDP5.1.Atmos.DV.MKV.x265杜比视界【9.75GB】


基地4k Foundation.S01E06.2160p.ATVP.WEB-DL.DDP5.1.Atmos.DV.MP4.x265杜比视界【9.75GB】


基地4k Foundation.S01E06.HDR.2160p.WEB.H265【9.76GB】


基地4k Foundation.S01E07.HDR.2160p.WEB.H265【8.43GB】


基地4k Foundation.S01E07.2160p.ATVP.WEB-DL.DDP5.1.Atmos.DV.MKV.x265杜比视界【8.51GB】


基地4k Foundation.S01E07.2160p.ATVP.WEB-DL.DDP5.1.Atmos.DV.MP4.x265杜比视界【8.51GB】


基地4k Foundation.S01E07.2160p.WEB.H265【7.49 GB】


基地4k Foundation.S01E08.2160p.WEB.H265【8.37 GB】


基地4k Foundation.S01E08.HDR.2160p.WEB.H265【9.77 GB】


基地4k Foundation.S01E09.HDR.2160p.WEB.H265【9.97 GB】


基地4k Foundation.S01E09.2160p.WEB.H265【8.64 GB】


基地4k Foundation.S01E09.2160p.ATVP.WEB-DL.DDP5.1.Atmos.DV.MP4.x265【杜比视界 10.13 GB】


基地4k Foundation.S01E09.2160p.ATVP.WEB-DL.DDP5.1.Atmos.DV.MKV.x265【杜比视界 10.13 GB】


基地4k Foundation.S01E10.2160p.ATVP.WEB-DL.DDP5.1.Atmos.DV.MKV.x265【杜比视界 10.59 GB】


基地4k Foundation.S01E10.2160p.ATVP.WEB-DL.DDP5.1.Atmos.DV.MP4.x265【杜比视界 10.59 GB】


基地4k Foundation.S01E10.2160p.WEB.H265【9.15 GB】


基地4k Foundation.S01E10.HDR.2160p.WEB.H265【10.63 GB】
基地.jpg
参与人数 2K币 +2 收起 理由
pateitou + 1 很给力!
mrlzy + 1 谢谢分享!

查看全部评分总评分 : K币 +2

精彩评论111

heijin1016 发表于 2021-9-26 11:21:43
热门大片啊!
回复 支持 反对

使用道具 举报

skywind0082 发表于 2021-9-26 12:55:04
真·有生之年系列
回复 支持 反对

使用道具 举报

cycjhb 发表于 2021-9-26 14:25:30
完蛋了,现在连hdr得版本都没有了。。。
回复 支持 1 反对 0

使用道具 举报

猫的Eye-Ahua 发表于 2021-9-27 13:33:00
回复 支持 反对

使用道具 举报

yu3dsto 发表于 2021-9-27 21:28:20
用索尼电视播放,没发现有字幕
回复 支持 1 反对 0

使用道具 举报

stingwon 发表于 2021-10-2 07:52:08
据说apple tv的订阅用户都很不买账,大投资要打水漂
回复 支持 1 反对 0

使用道具 举报

mengdeyuyan 发表于 2021-10-2 17:33:09
大制作啊,赶紧看爽起来
回复 支持 反对

使用道具 举报

xrc2435 发表于 2021-10-6 03:22:36
哈利谢顿第二集就写死了,我tm还看个毛线啊....魔改原著......不买单!
回复 支持 反对

使用道具 举报

pc586 发表于 2021-10-8 20:02:35
楼主更的及时,辛苦!
回复 支持 反对

使用道具 举报

jaokpig 发表于 2021-10-9 15:05:16
期待后面的更新
回复 支持 反对

使用道具 举报

17774419373 发表于 2021-10-10 08:12:39
下来看看的,谢谢楼主分享。
回复 支持 反对

使用道具 举报

faraway1116 发表于 2021-10-11 01:19:16
yu3dsto 发表于 2021-9-27 21:28
用索尼电视播放,没发现有字幕

我的索尼电视也是没字幕,用索尼蓝光机颜色还不对
回复 支持 反对

使用道具 举报

dd666 发表于 2021-10-12 20:51:40
艾西莫夫 YYDS,书全套早买了,一直没看
回复 支持 1 反对 0

使用道具 举报

szjimmylau 发表于 2021-10-14 01:34:02
ATV的剧真的一般般啊。。。
回复 支持 1 反对 0

使用道具 举报

您需要登录后才可以回帖 登录 | 立即注册

本版积分规则

推荐影视全站推荐影视下载
  • 6.7

    6 天前/4K(3840x2160)

    美国骗局4k

    Disc Title: American.Hustle.2013.2160p.USA.UHD.Blu-ray.DV.HDR.HEVC.TrueHD.7.1.Atmos-4ksj Disc Label: AMERICAN_HUSTLE Disc Size: 90,587,158,705 bytes Protection: AACS2 Playlist: 00001.MPLS Size: 85,214,373,888 bytes Length: 02:18:03.274 Total Bitrate: 82.30 Mbps Video: MPEG-H HEVC Video / 66,371 kbps / 2160p / 23.976 fps / 16:9 / Main 10 @ Level 5.1 @ High / 4:2:0 / 10 bits / HDR10 / Limited Range / BT.2020 / PQ / BT.2020 non-constant / Mastering display color primaries: Display P3 / Mastering display luminance: min: 0.0001 cd/m2, max: 1000.0000 cd/m2 / Maximum Content Light Level: 997 cd / m2 / Maximum Frame-Average Light Level: 284 cd/m2 * Video: MPEG-H HEVC Video / 2,101 kbps / 1080p / 23.976 fps / 16:9 / Main 10 @ Level 5.1 @ High / 4:2:0 / 10 bits / Dolby Vision / Limited Range / BT.2020 / PQ / BT.2020 non-constant / Mastering display color primaries: Display P3 / Mastering display luminance: min: 0.0001 cd/m2, max: 1000.0000 cd/m2 Audio: English / Dolby TrueHD/Atmos Audio / 7.1 / 48 kHz / 3630 kbps / 24-bit (AC3 Embedded: 5.1 / 48 kHz / 640 kbps / DN -31dB) Audio: English / DTS-HD Master Audio / 5.1 / 48 kHz / 2160 kbps / 16-bit (DTS Core: 5.1 / 48 kHz / 1509 kbps / 16-bit) Audio: Spanish / DTS-HD Master Audio / 5.1 / 48 kHz / 2177 kbps / 16-bit (DTS Core: 5.1 / 48 kHz / 1509 kbps / 16-bit) Subtitle: English / 56.67 kbps Subtitle: English / 51.51 kbps Subtitle: Spanish / 41.85 kbps

    美国骗局4k(2013年)
    6.7
    ①网盘资源信息:
    剧情简介: 一次偶然中,埃文(克里斯蒂安·贝尔 Christian Bale 饰)遇见了性感美艳的脱衣舞女西德尼(艾米·亚当斯 Amy Adams 饰),趣味相投的两人一见钟情,很快就打得火热。没想到,埃文是一个职业骗子,在他的鼓动和“爱情的力量”影响之下,西德尼毅然入伙,两人联手合作,将“事业”经营的有声有色。   然而,常在河边走哪有不湿鞋,警方早已经盯上了行事作风颇为高调的埃文和西德尼,终于,在一次精密筹划的行动中将两人捉拿归案。经不住FBI探员里奇(布莱德利·库珀 Bradley Cooper 饰)的游说和诱惑,埃文和西德尼决定与其合作,“戴罪立功”。尽管拾起了“老本行”,但这次一次,埃文和西德尼显然站在了正义的那一方,因为他们的对手是那些贪赃枉法的腐败官员。

    3 天前/4K(3840x2160)

    美国内战4k

    File Name............: Civil.War.2024.2160p.iTunes.WEB-DL.DDP.5.1.Atmos.H.265-4ksj File Size............: 15.90 GiB Duration.............: 01:48:45.268 (HH:MM:SS.FFF) Video Bit Rate.......: 20,147 kbps Video Codec..........: HEVC,Main 10@L5 Frame Rate...........: 23.976 fps Resolution...........: 3836 x 2072 Audio#01.............: English (US) 768 kbps CBR 6channels E-AC-3 (ATMOS) Subtitle#01..........: Spanish (Latin America) Latin America

    美国内战4k(2024年)
    ①网盘资源信息:
    剧情简介: 影片讲述美国在不久的将来,爆发了影响全国的内战。在资深战地摄影师李·史密斯(克斯汀·邓斯特 Kirsten Dunst 饰)的带领下,记者们组成了一支强大的专业团队,穿越战线并设法生存下来。他们驱车前往华盛顿特区,希望在总统向名为 "WF"的军事力量投降之前采访总统。
    7.1

    6 天前/4K(3840x2160)

    特技狂人4k

    File Name............: The.Fall.Guy.2024.2160p.iTunes.WEB-DL.DDP.5.1.Atmos.HDR10+.H.265-4ksj File Size............: 22.30 GiB Duration.............: 02:06:53.451 (HH:MM:SS.FFF) Video Bit Rate.......: 24,420 kbps Video Codec..........: HEVC,Main 10@L5 SMPTE ST 2094 App 4, Version 1, HDR10+ Profile B compatible Frame Rate...........: 23.903 fps Resolution...........: 3836 x 1600 Audio#01.............: English (US) 768 kbps CBR 6channels E-AC-3 (ATMOS) Subtitle#01..........: Spanish (Latin America) Latin America Subtitle#02..........: French (CA) Canada

    特技狂人4k(2024年)
    7.1
    ①网盘资源信息:
    剧情简介:特技演员为爱犯险,翻身做主角。   科尔特·西弗斯(瑞恩·高斯林 Ryan Gosling 饰)是一名特技演员,就跟这个行业的每一个特技演员一样,他常常被炸飞、辗压、破窗而出以及从高处坠落地面,全都是为了娱乐观众。如今,他才刚因为意外受伤几乎被迫无法再从事特技表演,平凡的科尔特必须找到失踪的电影明星汤姆·赖德(亚伦·泰勒-约翰逊 Aaron Taylor-Johnson 饰)、破解一个阴谋,并且赢回他一生挚爱乔迪(艾米莉·布朗特 Emily Blunt 饰)的芳心,同时还要继续当一名特技演员。分身乏术、焦头烂额的他有可能一帆风顺吗?
    5.5

    7 天前/4K(3840x2160)

    我不好惹2:贝琪之怒4k

    Disc Title: BECKY 2 - SHE\\\\\\\\\\\\\\\\\\\\\\\\\\\\\\\\\\\\\\\\\\\\\\\\\\\\\\\\\\\\\\\'S BACK Disc Label: The.Wrath.of.Becky.2023.2160p.UHD.Blu-ray.HEVC.DTS-HD.MA.7.1-4ksj Disc Size: 54,543,534,782 bytes Protection: AACS2 Playlist: 00000.MPLS Size: 52,846,829,184 bytes Length: 1:24:10.000 Total Bitrate: 83.72 Mbps Video: MPEG-H HEVC Video / 70339 kbps / 2160p / 24 fps / 16:9 / Main 10 @ Level 5.1 @ High / 10 bits / HDR10 / BT.2020 Audio: German / DTS-HD Master Audio / 7.1 / 48 kHz / 4743 kbps / 24-bit (DTS Core: 5.1 / 48 kHz / 1509 kbps / 24-bit) Audio: English / DTS-HD Master Audio / 7.1 / 48 kHz / 4585 kbps / 24-bit (DTS Core: 5.1 / 48 kHz / 1509 kbps / 24-bit) Subtitle: German / 31.173 kbps Subtitle: German / 0.717 kbps

    ①网盘资源信息:
    剧情简介:在逃离暴力袭击两年后,女孩贝琪必须再度保护自己免受恐怖分子的袭击。贝琪试图在名叫埃琳娜的年长女性的照顾下重建自己的生活。但是,当一个被称为“贵族”的团体闯入他们的家,袭击他们,并带走她心爱的狗迭戈时,贝琪必须找回她以前的方式来保护自己和她的亲人。

    3 天前/4K(3840x2160)

    异星战境4k

    Video ID : 1 Format : HEVC Format/Info : High Efficiency Video Coding Format profile : Main 10@L5@Main Codec ID : V_MPEGH/ISO/HEVC Duration : 2 h 0 min Bit rate : 10.8 Mb/s Width : 3 840 pixels Height : 2 160 pixels Display aspect ratio : 16:9 Frame rate mode : Constant Frame rate : 24.000 FPS Color space : YUV Chroma subsampling : 4:2:0 Bit depth : 10 bits Bits/(Pixel*Frame) : 0.054 Stream size : 9.02 GiB (86%) Title : BEN.THE.MEN Language : English Default : Yes Forced : Yes Color range : Limited Color primaries : BT.709 Transfer characteristics : BT.709 Matrix coefficients : BT.709 Audio #1 ID : 2 Format : E-AC-3 JOC Format/Info : Enhanced AC-3 with Joint Object Coding Commercial name : Dolby Digital Plus with Dolby Atmos Codec ID : A_EAC3 Duration : 2 h 0 min Bit rate mode : Constant Bit rate : 768 kb/s Channel(s) : 6 channels Channel layout : L R C LFE Ls Rs Sampling rate : 48.0 kHz Frame rate : 31.250 FPS (1536 SPF) Compression mode : Lossy Stream size : 660 MiB (6%) Title : BTM DDP5.1 Atmos Language : English Service kind : Complete Main Default : Yes Forced : Yes Complexity index : 16 Number of dynamic objects : 15 Bed channel count : 1 channel Bed channel configuration : LFE Dialog Normalization : -26 dB compr : -0.28 dB dialnorm_Average : -26 dB dialnorm_Minimum : -26 dB dialnorm_Maximum : -26 dB Audio #2 ID : 3 Format : E-AC-3 Format/Info : Enhanced AC-3 Commercial name : Dolby Digital Plus Codec ID : A_EAC3 Duration : 2 h 0 min Bit rate mode : Constant Bit rate : 960 kb/s Channel(s) : 6 channels Channel layout : L R C LFE Ls Rs Sampling rate : 48.0 kHz Frame rate : 31.250 FPS (1536 SPF) Compression mode : Lossy Stream size : 825 MiB (8%) Title : BTM DDP5.1 Language : English Service kind : Complete Main Default : No Forced : No Dialog Normalization : -31 dB dialnorm_Average : -31 dB dialnorm_Minimum : -31 dB dialnorm_Maximum : -31 dB

    异星战境4k(2024年)
    ①网盘资源信息:
    剧情简介:在未来世界,军事情报分析师Atlas Shepherd(詹妮弗·洛佩兹 Jennifer Lopez 饰),对AI有着深切的不信任感。她加入了一个任务,试图捕捉一个叛逃的机器人,而这个机器人有着神秘的过去。不过,当计划失败时,她唯一拯救人类未来免受AI侵害的希望就是去相信它。


2015-2023 www.4ksj.com  4K世界 |网站地图
京ICP证160991号 京公网安备11010802015683号 Copyright ©2023 All Rights Reserved.
    *本站提供的所有电影资源均来自互联网,仅限交流使用,请在下载后的2小时内删除,所有版权皆属原公司所有,如果认为本站侵犯了您的版权,请告知,我们会立即删除。