4K世界

电视剧封面:
电视剧名: 弹子球游戏
年  代: 2022  
国  家: 韩国
类  别: 剧情 
语  言: 中文
字  幕: 中文简体
上映日期: 2022-03-25(美国)
文件格式: mkv    
视频效果: 4K(3840x2160)    
资源大小: 每集约9.58 GB
片  长: 54 分钟
导  演: 郭共达 / 全知泰
剧情简介:   苹果正式预订《弹子球游戏》(Pachinko)剧集整季。去年8月苹果拿下了李明锦所著同名小说的版权,计划拍剧,如今正式要拍。Soo Hugh(《天外来客》《穹顶之下》)担任编剧、运作人、执行制作人。
  小说记录了一个美国的韩国移民家庭四代人的希望和梦想,以一段禁忌的爱情故事开始发展,成为一部横跨韩国、日本和美国的长篇传奇。该书被《纽约时报》评为2017年十大最佳书籍之一,并入围美国国家图书奖。
  1. Video
  2. ID                             : 1
  3. Format                         : HEVC
  4. Format/Info                    : High Efficiency Video Coding
  5. Format profile                 : Main 10@L5@High
  6. HDR format                     : Dolby Vision, Version 1.0, dvhe.05.06, BL+RPU
  7. Codec ID                       : V_MPEGH/ISO/HEVC
  8. Duration                       : 54 min 36 s
  9. Bit rate                       : 24.4 Mb/s
  10. Width                          : 3 840 pixels
  11. Height                         : 1 746 pixels
  12. Display aspect ratio           : 2.2:1
  13. Frame rate mode                : Constant
  14. Frame rate                     : 23.976 (24000/1001) FPS
  15. Color space                    : YUV
  16. Chroma subsampling             : 4:2:0
  17. Bit depth                      : 10 bits
  18. Bits/(Pixel*Frame)             : 0.152
  19. Stream size                    : 9.29 GiB (97%)
  20. Language                       : English
  21. Default                        : Yes
  22. Forced                         : No

  23. Audio
  24. ID                             : 2
  25. Format                         : E-AC-3 JOC
  26. Format/Info                    : Enhanced AC-3 with Joint Object Coding
  27. Commercial name                : Dolby Digital Plus with Dolby Atmos
  28. Codec ID                       : A_EAC3
  29. Duration                       : 54 min 36 s
  30. Bit rate mode                  : Constant
  31. Bit rate                       : 768 kb/s
  32. Channel(s)                     : 6 channels
  33. Channel layout                 : L R C LFE Ls Rs
  34. Sampling rate                  : 48.0 kHz
  35. Frame rate                     : 31.250 FPS (1536 SPF)
  36. Compression mode               : Lossy
  37. Stream size                    : 300 MiB (3%)
  38. Language                       : Korean
  39. Service kind                   : Complete Main
  40. Default                        : Yes
  41. Forced                         : No
  42. Complexity index               : 16
  43. Number of dynamic objects      : 15
  44. Bed channel count              : 1 channel
  45. Bed channel configuration      : LFE

  46. Text #1
  47. ID                             : 3
  48. Format                         : UTF-8
  49. Codec ID                       : S_TEXT/UTF8
  50. Codec ID/Info                  : UTF-8 Plain Text
  51. Duration                       : 54 min 15 s
  52. Bit rate                       : 14 b/s
  53. Count of elements              : 167
  54. Stream size                    : 5.71 KiB (0%)
  55. Title                          : Forced
  56. Language                       : Korean
  57. Default                        : Yes
  58. Forced                         : Yes

  59. Text #2
  60. ID                             : 4
  61. Format                         : UTF-8
  62. Codec ID                       : S_TEXT/UTF8
  63. Codec ID/Info                  : UTF-8 Plain Text
  64. Duration                       : 54 min 15 s
  65. Bit rate                       : 43 b/s
  66. Count of elements              : 507
  67. Stream size                    : 17.1 KiB (0%)
  68. Language                       : Korean
  69. Default                        : No
  70. Forced                         : No

  71. Text #3
  72. ID                             : 5
  73. Format                         : UTF-8
  74. Codec ID                       : S_TEXT/UTF8
  75. Codec ID/Info                  : UTF-8 Plain Text
  76. Duration                       : 54 min 15 s
  77. Bit rate                       : 54 b/s
  78. Count of elements              : 631
  79. Stream size                    : 21.7 KiB (0%)
  80. Title                          : SDH
  81. Language                       : Korean
  82. Default                        : No
  83. Forced                         : No

  84. Text #4
  85. ID                             : 6
  86. Format                         : UTF-8
  87. Codec ID                       : S_TEXT/UTF8
  88. Codec ID/Info                  : UTF-8 Plain Text
  89. Duration                       : 54 min 15 s
  90. Bit rate                       : 52 b/s
  91. Count of elements              : 506
  92. Stream size                    : 20.7 KiB (0%)
  93. Language                       : Arabic
  94. Default                        : No
  95. Forced                         : No

  96. Text #5
  97. ID                             : 7
  98. Format                         : UTF-8
  99. Codec ID                       : S_TEXT/UTF8
  100. Codec ID/Info                  : UTF-8 Plain Text
  101. Duration                       : 54 min 15 s
  102. Bit rate                       : 56 b/s
  103. Count of elements              : 501
  104. Stream size                    : 22.6 KiB (0%)
  105. Language                       : Bulgarian
  106. Default                        : No
  107. Forced                         : No

  108. Text #6
  109. ID                             : 8
  110. Format                         : UTF-8
  111. Codec ID                       : S_TEXT/UTF8
  112. Codec ID/Info                  : UTF-8 Plain Text
  113. Duration                       : 54 min 15 s
  114. Bit rate                       : 32 b/s
  115. Count of elements              : 506
  116. Stream size                    : 12.8 KiB (0%)
  117. Title                          : Simplified
  118. Language                       : Chinese
  119. Default                        : No
  120. Forced                         : No

  121. Text #7
  122. ID                             : 9
  123. Format                         : UTF-8
  124. Codec ID                       : S_TEXT/UTF8
  125. Codec ID/Info                  : UTF-8 Plain Text
  126. Duration                       : 54 min 15 s
  127. Bit rate                       : 36 b/s
  128. Count of elements              : 507
  129. Stream size                    : 14.5 KiB (0%)
  130. Title                          : Traditional
  131. Language                       : Chinese
  132. Default                        : No
  133. Forced                         : No

  134. Text #8
  135. ID                             : 10
  136. Format                         : UTF-8
  137. Codec ID                       : S_TEXT/UTF8
  138. Codec ID/Info                  : UTF-8 Plain Text
  139. Duration                       : 54 min 15 s
  140. Bit rate                       : 35 b/s
  141. Count of elements              : 499
  142. Stream size                    : 14.2 KiB (0%)
  143. Language                       : Czech
  144. Default                        : No
  145. Forced                         : No

  146. Text #9
  147. ID                             : 11
  148. Format                         : UTF-8
  149. Codec ID                       : S_TEXT/UTF8
  150. Codec ID/Info                  : UTF-8 Plain Text
  151. Duration                       : 54 min 15 s
  152. Bit rate                       : 39 b/s
  153. Count of elements              : 498
  154. Stream size                    : 15.6 KiB (0%)
  155. Language                       : Danish
  156. Default                        : No
  157. Forced                         : No

  158. Text #10
  159. ID                             : 12
  160. Format                         : UTF-8
  161. Codec ID                       : S_TEXT/UTF8
  162. Codec ID/Info                  : UTF-8 Plain Text
  163. Duration                       : 54 min 10 s
  164. Bit rate                       : 41 b/s
  165. Count of elements              : 479
  166. Stream size                    : 16.4 KiB (0%)
  167. Language                       : German
  168. Default                        : No
  169. Forced                         : No

  170. Text #11
  171. ID                             : 13
  172. Format                         : UTF-8
  173. Codec ID                       : S_TEXT/UTF8
  174. Codec ID/Info                  : UTF-8 Plain Text
  175. Duration                       : 54 min 15 s
  176. Bit rate                       : 65 b/s
  177. Count of elements              : 504
  178. Stream size                    : 25.9 KiB (0%)
  179. Language                       : Greek
  180. Default                        : No
  181. Forced                         : No

  182. Text #12
  183. ID                             : 14
  184. Format                         : UTF-8
  185. Codec ID                       : S_TEXT/UTF8
  186. Codec ID/Info                  : UTF-8 Plain Text
  187. Duration                       : 51 min 35 s
  188. Bit rate                       : 38 b/s
  189. Count of elements              : 487
  190. Stream size                    : 14.4 KiB (0%)
  191. Language                       : English
  192. Default                        : No
  193. Forced                         : No

  194. Text #13
  195. ID                             : 15
  196. Format                         : UTF-8
  197. Codec ID                       : S_TEXT/UTF8
  198. Codec ID/Info                  : UTF-8 Plain Text
  199. Duration                       : 53 min 50 s
  200. Bit rate                       : 49 b/s
  201. Count of elements              : 630
  202. Stream size                    : 19.4 KiB (0%)
  203. Title                          : SDH
  204. Language                       : English
  205. Default                        : No
  206. Forced                         : No

  207. Text #14
  208. ID                             : 16
  209. Format                         : UTF-8
  210. Codec ID                       : S_TEXT/UTF8
  211. Codec ID/Info                  : UTF-8 Plain Text
  212. Duration                       : 54 min 15 s
  213. Bit rate                       : 39 b/s
  214. Count of elements              : 503
  215. Stream size                    : 15.6 KiB (0%)
  216. Title                          : Latin American
  217. Language                       : Spanish
  218. Default                        : No
  219. Forced                         : No

  220. Text #15
  221. ID                             : 17
  222. Format                         : UTF-8
  223. Codec ID                       : S_TEXT/UTF8
  224. Codec ID/Info                  : UTF-8 Plain Text
  225. Duration                       : 54 min 15 s
  226. Bit rate                       : 42 b/s
  227. Count of elements              : 495
  228. Stream size                    : 16.9 KiB (0%)
  229. Language                       : Spanish
  230. Default                        : No
  231. Forced                         : No

  232. Text #16
  233. ID                             : 18
  234. Format                         : UTF-8
  235. Codec ID                       : S_TEXT/UTF8
  236. Codec ID/Info                  : UTF-8 Plain Text
  237. Duration                       : 54 min 15 s
  238. Bit rate                       : 35 b/s
  239. Count of elements              : 498
  240. Stream size                    : 14.2 KiB (0%)
  241. Language                       : Estonian
  242. Default                        : No
  243. Forced                         : No

  244. Text #17
  245. ID                             : 19
  246. Format                         : UTF-8
  247. Codec ID                       : S_TEXT/UTF8
  248. Codec ID/Info                  : UTF-8 Plain Text
  249. Duration                       : 54 min 15 s
  250. Bit rate                       : 36 b/s
  251. Count of elements              : 499
  252. Stream size                    : 14.4 KiB (0%)
  253. Language                       : Finnish
  254. Default                        : No
  255. Forced                         : No

  256. Text #18
  257. ID                             : 20
  258. Format                         : UTF-8
  259. Codec ID                       : S_TEXT/UTF8
  260. Codec ID/Info                  : UTF-8 Plain Text
  261. Duration                       : 54 min 15 s
  262. Bit rate                       : 44 b/s
  263. Count of elements              : 498
  264. Stream size                    : 17.6 KiB (0%)
  265. Language                       : Tagalog
  266. Default                        : No
  267. Forced                         : No

  268. Text #19
  269. ID                             : 21
  270. Format                         : UTF-8
  271. Codec ID                       : S_TEXT/UTF8
  272. Codec ID/Info                  : UTF-8 Plain Text
  273. Duration                       : 53 min 31 s
  274. Bit rate                       : 42 b/s
  275. Count of elements              : 562
  276. Stream size                    : 16.9 KiB (0%)
  277. Title                          : Canadian
  278. Language                       : French
  279. Default                        : No
  280. Forced                         : No

  281. Text #20
  282. ID                             : 22
  283. Format                         : UTF-8
  284. Codec ID                       : S_TEXT/UTF8
  285. Codec ID/Info                  : UTF-8 Plain Text
  286. Duration                       : 53 min 31 s
  287. Bit rate                       : 42 b/s
  288. Count of elements              : 562
  289. Stream size                    : 16.9 KiB (0%)
  290. Language                       : French
  291. Default                        : No
  292. Forced                         : No

  293. Text #21
  294. ID                             : 23
  295. Format                         : UTF-8
  296. Codec ID                       : S_TEXT/UTF8
  297. Codec ID/Info                  : UTF-8 Plain Text
  298. Duration                       : 54 min 15 s
  299. Bit rate                       : 50 b/s
  300. Count of elements              : 506
  301. Stream size                    : 20.2 KiB (0%)
  302. Language                       : Hebrew
  303. Default                        : No
  304. Forced                         : No

  305. Text #22
  306. ID                             : 24
  307. Format                         : UTF-8
  308. Codec ID                       : S_TEXT/UTF8
  309. Codec ID/Info                  : UTF-8 Plain Text
  310. Duration                       : 54 min 15 s
  311. Bit rate                       : 98 b/s
  312. Count of elements              : 507
  313. Stream size                    : 39.2 KiB (0%)
  314. Language                       : Hindi
  315. Default                        : No
  316. Forced                         : No

  317. Text #23
  318. ID                             : 25
  319. Format                         : UTF-8
  320. Codec ID                       : S_TEXT/UTF8
  321. Codec ID/Info                  : UTF-8 Plain Text
  322. Duration                       : 54 min 15 s
  323. Bit rate                       : 37 b/s
  324. Count of elements              : 502
  325. Stream size                    : 14.7 KiB (0%)
  326. Language                       : Hungarian
  327. Default                        : No
  328. Forced                         : No

  329. Text #24
  330. ID                             : 26
  331. Format                         : UTF-8
  332. Codec ID                       : S_TEXT/UTF8
  333. Codec ID/Info                  : UTF-8 Plain Text
  334. Duration                       : 54 min 15 s
  335. Bit rate                       : 37 b/s
  336. Count of elements              : 499
  337. Stream size                    : 14.9 KiB (0%)
  338. Language                       : Indonesian
  339. Default                        : No
  340. Forced                         : No

  341. Text #25
  342. ID                             : 27
  343. Format                         : UTF-8
  344. Codec ID                       : S_TEXT/UTF8
  345. Codec ID/Info                  : UTF-8 Plain Text
  346. Duration                       : 54 min 17 s
  347. Bit rate                       : 40 b/s
  348. Count of elements              : 500
  349. Stream size                    : 16.0 KiB (0%)
  350. Language                       : Italian
  351. Default                        : No
  352. Forced                         : No

  353. Text #26
  354. ID                             : 28
  355. Format                         : UTF-8
  356. Codec ID                       : S_TEXT/UTF8
  357. Codec ID/Info                  : UTF-8 Plain Text
  358. Duration                       : 54 min 25 s
  359. Bit rate                       : 41 b/s
  360. Count of elements              : 472
  361. Stream size                    : 16.5 KiB (0%)
  362. Language                       : Japanese
  363. Default                        : No
  364. Forced                         : No

  365. Text #27
  366. ID                             : 29
  367. Format                         : UTF-8
  368. Codec ID                       : S_TEXT/UTF8
  369. Codec ID/Info                  : UTF-8 Plain Text
  370. Duration                       : 54 min 15 s
  371. Bit rate                       : 37 b/s
  372. Count of elements              : 505
  373. Stream size                    : 14.8 KiB (0%)
  374. Language                       : Lithuanian
  375. Default                        : No
  376. Forced                         : No

  377. Text #28
  378. ID                             : 30
  379. Format                         : UTF-8
  380. Codec ID                       : S_TEXT/UTF8
  381. Codec ID/Info                  : UTF-8 Plain Text
  382. Duration                       : 54 min 15 s
  383. Bit rate                       : 38 b/s
  384. Count of elements              : 501
  385. Stream size                    : 15.2 KiB (0%)
  386. Language                       : Latvian
  387. Default                        : No
  388. Forced                         : No

  389. Text #29
  390. ID                             : 31
  391. Format                         : UTF-8
  392. Codec ID                       : S_TEXT/UTF8
  393. Codec ID/Info                  : UTF-8 Plain Text
  394. Duration                       : 54 min 15 s
  395. Bit rate                       : 38 b/s
  396. Count of elements              : 499
  397. Stream size                    : 15.4 KiB (0%)
  398. Language                       : Malay
  399. Default                        : No
  400. Forced                         : No

  401. Text #30
  402. ID                             : 32
  403. Format                         : UTF-8
  404. Codec ID                       : S_TEXT/UTF8
  405. Codec ID/Info                  : UTF-8 Plain Text
  406. Duration                       : 54 min 15 s
  407. Bit rate                       : 37 b/s
  408. Count of elements              : 490
  409. Stream size                    : 14.9 KiB (0%)
  410. Language                       : Dutch
  411. Default                        : No
  412. Forced                         : No

  413. Text #31
  414. ID                             : 33
  415. Format                         : UTF-8
  416. Codec ID                       : S_TEXT/UTF8
  417. Codec ID/Info                  : UTF-8 Plain Text
  418. Duration                       : 54 min 15 s
  419. Bit rate                       : 36 b/s
  420. Count of elements              : 498
  421. Stream size                    : 14.4 KiB (0%)
  422. Language                       : Norwegian
  423. Default                        : No
  424. Forced                         : No

  425. Text #32
  426. ID                             : 34
  427. Format                         : UTF-8
  428. Codec ID                       : S_TEXT/UTF8
  429. Codec ID/Info                  : UTF-8 Plain Text
  430. Duration                       : 54 min 15 s
  431. Bit rate                       : 35 b/s
  432. Count of elements              : 499
  433. Stream size                    : 14.3 KiB (0%)
  434. Language                       : Polish
  435. Default                        : No
  436. Forced                         : No

  437. Text #33
  438. ID                             : 35
  439. Format                         : UTF-8
  440. Codec ID                       : S_TEXT/UTF8
  441. Codec ID/Info                  : UTF-8 Plain Text
  442. Duration                       : 54 min 15 s
  443. Bit rate                       : 37 b/s
  444. Count of elements              : 496
  445. Stream size                    : 14.8 KiB (0%)
  446. Language                       : Portuguese
  447. Default                        : No
  448. Forced                         : No

  449. Text #34
  450. ID                             : 36
  451. Format                         : UTF-8
  452. Codec ID                       : S_TEXT/UTF8
  453. Codec ID/Info                  : UTF-8 Plain Text
  454. Duration                       : 54 min 15 s
  455. Bit rate                       : 38 b/s
  456. Count of elements              : 501
  457. Stream size                    : 15.2 KiB (0%)
  458. Title                          : Brazilian
  459. Language                       : Portuguese
  460. Default                        : No
  461. Forced                         : No

  462. Text #35
  463. ID                             : 37
  464. Format                         : UTF-8
  465. Codec ID                       : S_TEXT/UTF8
  466. Codec ID/Info                  : UTF-8 Plain Text
  467. Duration                       : 54 min 15 s
  468. Bit rate                       : 68 b/s
  469. Count of elements              : 512
  470. Stream size                    : 27.3 KiB (0%)
  471. Language                       : Russian
  472. Default                        : No
  473. Forced                         : No

  474. Text #36
  475. ID                             : 38
  476. Format                         : UTF-8
  477. Codec ID                       : S_TEXT/UTF8
  478. Codec ID/Info                  : UTF-8 Plain Text
  479. Duration                       : 54 min 15 s
  480. Bit rate                       : 35 b/s
  481. Count of elements              : 502
  482. Stream size                    : 13.9 KiB (0%)
  483. Language                       : Slovak
  484. Default                        : No
  485. Forced                         : No

  486. Text #37
  487. ID                             : 39
  488. Format                         : UTF-8
  489. Codec ID                       : S_TEXT/UTF8
  490. Codec ID/Info                  : UTF-8 Plain Text
  491. Duration                       : 54 min 15 s
  492. Bit rate                       : 32 b/s
  493. Count of elements              : 500
  494. Stream size                    : 13.1 KiB (0%)
  495. Language                       : Slovenian
  496. Default                        : No
  497. Forced                         : No

  498. Text #38
  499. ID                             : 40
  500. Format                         : UTF-8
  501. Codec ID                       : S_TEXT/UTF8
  502. Codec ID/Info                  : UTF-8 Plain Text
  503. Duration                       : 54 min 15 s
  504. Bit rate                       : 39 b/s
  505. Count of elements              : 448
  506. Stream size                    : 15.7 KiB (0%)
  507. Language                       : Swedish
  508. Default                        : No
  509. Forced                         : No

  510. Text #39
  511. ID                             : 41
  512. Format                         : UTF-8
  513. Codec ID                       : S_TEXT/UTF8
  514. Codec ID/Info                  : UTF-8 Plain Text
  515. Duration                       : 54 min 15 s
  516. Bit rate                       : 119 b/s
  517. Count of elements              : 506
  518. Stream size                    : 47.4 KiB (0%)
  519. Language                       : Tamil
  520. Default                        : No
  521. Forced                         : No

  522. Text #40
  523. ID                             : 42
  524. Format                         : UTF-8
  525. Codec ID                       : S_TEXT/UTF8
  526. Codec ID/Info                  : UTF-8 Plain Text
  527. Duration                       : 54 min 15 s
  528. Bit rate                       : 107 b/s
  529. Count of elements              : 506
  530. Stream size                    : 42.7 KiB (0%)
  531. Language                       : Telugu
  532. Default                        : No
  533. Forced                         : No

  534. Text #41
  535. ID                             : 43
  536. Format                         : UTF-8
  537. Codec ID                       : S_TEXT/UTF8
  538. Codec ID/Info                  : UTF-8 Plain Text
  539. Duration                       : 54 min 15 s
  540. Bit rate                       : 94 b/s
  541. Count of elements              : 506
  542. Stream size                    : 37.5 KiB (0%)
  543. Language                       : Thai
  544. Default                        : No
  545. Forced                         : No

  546. Text #42
  547. ID                             : 44
  548. Format                         : UTF-8
  549. Codec ID                       : S_TEXT/UTF8
  550. Codec ID/Info                  : UTF-8 Plain Text
  551. Duration                       : 54 min 15 s
  552. Bit rate                       : 37 b/s
  553. Count of elements              : 499
  554. Stream size                    : 15.0 KiB (0%)
  555. Language                       : Turkish
  556. Default                        : No
  557. Forced                         : No

  558. Text #43
  559. ID                             : 45
  560. Format                         : UTF-8
  561. Codec ID                       : S_TEXT/UTF8
  562. Codec ID/Info                  : UTF-8 Plain Text
  563. Duration                       : 54 min 15 s
  564. Bit rate                       : 56 b/s
  565. Count of elements              : 505
  566. Stream size                    : 22.5 KiB (0%)
  567. Language                       : Ukrainian
  568. Default                        : No
  569. Forced                         : No

  570. Text #44
  571. ID                             : 46
  572. Format                         : UTF-8
  573. Codec ID                       : S_TEXT/UTF8
  574. Codec ID/Info                  : UTF-8 Plain Text
  575. Duration                       : 54 min 15 s
  576. Bit rate                       : 47 b/s
  577. Count of elements              : 499
  578. Stream size                    : 18.8 KiB (0%)
  579. Language                       : Vietnamese
  580. Default                        : No
  581. Forced                         : No

  582. Text #45
  583. ID                             : 47
  584. Format                         : UTF-8
  585. Codec ID                       : S_TEXT/UTF8
  586. Codec ID/Info                  : UTF-8 Plain Text
  587. Duration                       : 54 min 15 s
  588. Bit rate                       : 32 b/s
  589. Count of elements              : 507
  590. Stream size                    : 12.8 KiB (0%)
  591. Title                          : Cantonese
  592. Language                       : Chinese
  593. Default                        : No
  594. Forced                         : No

复制代码


Hao4K.Pachinko.S01.KOREAN.2160p.ATVP.WEB-DL.DDP5.1.Atmos.DV.MP4.x265-DVSUX.torrent

98.44 KB

售价: 2 个K币  [记录]

Hao4K.Pachinko.S01.KOREAN.2160p.ATVP.WEB-DL.DDP5.1.Atmos.x265-MIXED.torrent

83.5 KB

售价: 2 个K币  [记录]

Hao4K.Pachinko.S01.KOREAN.2160p.ATVP.WEB-DL.x265.10bit.HDR.DDP5.1.Atmos-MIXED.torrent

97.31 KB

售价: 2 个K币  [记录]

回复

使用道具 举报

全部回复14

daniel2go 2022-3-28 10:48 显示全部楼层

daniel2go 2

2022-3-28 10:48

家里电视只能看MP4格式的DV版本 。。。
回复 支持 1 反对 0

使用道具 举报

神风的清响声 3

2022-4-1 15:41

有字幕吗?
回复 支持 反对

使用道具 举报

sw1301600633 4

2022-4-1 18:00


看影片详细信息。
屏幕截图716.png
回复 支持 反对

使用道具 举报

liuzhiwen1964 5

2022-4-8 21:39

为什么播放的画面,颜色不正常?全是粉色和绿色?
回复 支持 反对

使用道具 举报

会当凌绝顶 6

2022-4-9 12:44

liuzhiwen1964 发表于 22-4-8 21:39
为什么播放的画面,颜色不正常?全是粉色和绿色?

因为你没仔细看,我用括号写了,SDR版本和杜比视界版本,你的设备不支持杜比视界为什么下杜比视界版本的呢。
回复 支持 反对

使用道具 举报

凝视深渊 7

2022-4-25 08:36

06/07是不是已经播出了!
回复 支持 反对

使用道具 举报

会当凌绝顶 8

2022-4-25 13:19

凝视深渊 发表于 22-4-25 08:36
06/07是不是已经播出了!

这两集不是有种子吗?仔细看。
回复 支持 反对

使用道具 举报

凝视深渊 9

2022-4-25 16:06

会当凌绝顶 发表于 22-4-25 13:19
这两集不是有种子吗?仔细看。

哈哈 看到了 05一直大字置顶  没留意下面已经更新!谢谢!
回复 支持 反对

使用道具 举报

glmsllgyz 2022-4-28 08:12 显示全部楼层

glmsllgyz 10

2022-4-28 08:12

请问07有sdr版吗?
回复 支持 反对

使用道具 举报

凝视深渊 11

2022-4-29 08:35

glmsllgyz 发表于 22-4-28 08:12
请问07有sdr版吗?

同问  07是杜比的  HDR也行
回复 支持 1 反对 0

使用道具 举报

sjh8371 2022-8-19 18:41 显示全部楼层

sjh8371 12

2022-8-19 18:41

看看。谢谢楼主
回复 支持 反对

使用道具 举报

CNHD 2022-9-7 14:49 显示全部楼层

CNHD 13

2022-9-7 14:49

谢谢楼主分享好资源
回复 支持 反对

使用道具 举报

chen666a12 2022-9-14 21:51 显示全部楼层

chen666a12 14

2022-9-14 21:51

二月底广东鸿图
回复 支持 反对

使用道具 举报

金子跳格 2022-10-10 21:18 显示全部楼层

金子跳格 15

2022-10-10 21:18

liuzhiwen1964 发表于 22-4-8 21:39
为什么播放的画面,颜色不正常?全是粉色和绿色?

你下载的是杜比视讯格式
回复 支持 反对

使用道具 举报

   发表回复

您需要登录后才可以回帖 登录 | 立即注册

返回列表 本版积分规则

  • 购买会员

  • 帮助

  • 回顶部