手机访问
| 4K世界 国内专业4K资源网站!

4K世界

电视剧频道
电视剧封面:
电视剧名: 德黑兰 第二季4k
年  代: 2022  
国  家: 美国
类  别: 动作 犯罪 惊悚 剧情 
语  言: 英语
字  幕: 英文原版
上映日期: 2022-05-06
文件格式: mkv    
视频效果: 4K(3840x2160)    
资源大小: 7.32 GB
片  长: -
导  演: Daniel Syrkin
剧情简介:  Apple TV+续订《德黑兰》第二季。
  从第二季开始,本剧会成为Apple TV+在全世界范围的原创剧集,在以色列当地会同时上线Apple TV+和在Kan 11播出。
德黑兰 第二季4k.Tehran.S02E01.2160p.WEB.H265-4k美剧信息
  1. Video
  2. ID : 1
  3. Format : HEVC
  4. Format/Info : High Efficiency Video Coding
  5. Format profile : Main 10@L5@High
  6. Codec ID : V_MPEGH/ISO/HEVC
  7. Duration : 49 min 18 s
  8. Bit rate : 20.1 Mb/s
  9. Width : 3 840 pixels
  10. Height : 1 606 pixels
  11. Display aspect ratio : 2.40:1
  12. Frame rate mode : Constant
  13. Frame rate : 23.976 (24000/1001) FPS
  14. Color space : YUV
  15. Chroma subsampling : 4:2:0
  16. Bit depth : 10 bits
  17. Bits/(Pixel*Frame) : 0.136
  18. Stream size : 6.91 GiB (94%)
  19. Language : English
  20. Default : Yes
  21. Forced : No
  22. Color range : Limited
  23. Color primaries : BT.709
  24. Transfer characteristics : BT.709
  25. Matrix coefficients : BT.709

  26. Audio
  27. ID : 2
  28. Format : E-AC-3 JOC
  29. Format/Info : Enhanced AC-3 with Joint Object Coding
  30. Commercial name : Dolby Digital Plus with Dolby Atmos
  31. Codec ID : A_EAC3
  32. Duration : 49 min 18 s
  33. Bit rate mode : Constant
  34. Bit rate : 768 kb/s
  35. Channel(s) : 6 channels
  36. Channel layout : L R C LFE Ls Rs
  37. Sampling rate : 48.0 kHz
  38. Frame rate : 31.250 FPS (1536 SPF)
  39. Compression mode : Lossy
  40. Stream size : 271 MiB (4%)
  41. Language : Hebrew
  42. Service kind : Complete Main
  43. Default : Yes
  44. Forced : No
  45. Complexity index : 16
  46. Number of dynamic objects : 15
  47. Bed channel count : 1 channel
  48. Bed channel configuration : LFE

  49. Text #1
  50. ID : 3
  51. Format : UTF-8
  52. Codec ID : S_TEXT/UTF8
  53. Codec ID/Info : UTF-8 Plain Text
  54. Title : English
  55. Language : English
  56. Default : Yes
  57. Forced : Yes

  58. Text #2
  59. ID : 4
  60. Format : UTF-8
  61. Codec ID : S_TEXT/UTF8
  62. Codec ID/Info : UTF-8 Plain Text
  63. Title : Arabic
  64. Language : Arabic
  65. Default : No
  66. Forced : No

  67. Text #3
  68. ID : 5
  69. Format : UTF-8
  70. Codec ID : S_TEXT/UTF8
  71. Codec ID/Info : UTF-8 Plain Text
  72. Title : Bulgarian
  73. Language : Bulgarian
  74. Default : No
  75. Forced : No

  76. Text #4
  77. ID : 6
  78. Format : UTF-8
  79. Codec ID : S_TEXT/UTF8
  80. Codec ID/Info : UTF-8 Plain Text
  81. Title : Chinese Simplified
  82. Language : Chinese
  83. Default : No
  84. Forced : No

  85. Text #5
  86. ID : 7
  87. Format : UTF-8
  88. Codec ID : S_TEXT/UTF8
  89. Codec ID/Info : UTF-8 Plain Text
  90. Title : Chinese Traditional
  91. Language : Chinese
  92. Default : No
  93. Forced : No

  94. Text #6
  95. ID : 8
  96. Format : UTF-8
  97. Codec ID : S_TEXT/UTF8
  98. Codec ID/Info : UTF-8 Plain Text
  99. Title : Chinese Yue
  100. Language : Chinese
  101. Default : No
  102. Forced : No

  103. Text #7
  104. ID : 9
  105. Format : UTF-8
  106. Codec ID : S_TEXT/UTF8
  107. Codec ID/Info : UTF-8 Plain Text
  108. Title : Czech
  109. Language : Czech
  110. Default : No
  111. Forced : No
复制代码

德黑兰 第二季4k.Tehran.S02E01.2160p.WEB.H265-4k美剧下载

德黑兰 第二季4k.Tehran.S02E01.2160p.WEB.H265自带简繁中字【7.32 GB】
[4k视界]德黑兰 第二季4k.Tehran.S02E01.2160p.WEB.H265-GLHF.torrent (19.01 KB)
回复

使用道具 举报

全部回复5

i大闸蟹 2

22-5-11 00:25

怎么下载的文件夹里有RARBG_DO_NOT_MIRROR.exe文件?两集里都有。
回复 支持 反对

使用道具 举报

ywrywr 22-5-16 22:26 显示全部楼层

ywrywr 3

22-5-16 22:26

不错的谍剧,谢谢分享。
回复 支持 反对

使用道具 举报

Lucifer1 4

22-5-25 11:19

第四集啥时候出来啊:(
回复 支持 反对

使用道具 举报

吴摔锅 5

22-6-15 11:11

等着6,7集呢。
回复 支持 反对

使用道具 举报

suijx71 22-6-17 08:29 显示全部楼层

suijx71 6

22-6-17 08:29

等着678了
回复 支持 反对

使用道具 举报

   发表回复

您需要登录后才可以回帖 登录 | 立即注册

返回列表 本版积分规则

  • 帮助

  • 回顶部