手机访问
| 4K世界 国内专业4K资源网站!

4K世界

电视剧频道
电视剧封面:
电视剧名: 天堂旗帜下4k
年  代: 2022  
国  家: 美国
类  别: 犯罪 剧情 悬疑 
语  言: 英语
字  幕: 英文原版
上映日期: 2022-04-28
文件格式: mkv    
视频效果: 4K(3840x2160)    
资源大小: 7.59 GB
片  长: 65 分钟
导  演: 大卫·马肯兹 / 伊莎贝尔·桑多瓦
剧情简介: 本剧改编自Jon Krakauer同名书籍,将讲述一系列事件,最后导致了居住在犹他州盐湖谷郊区的Brenda Wright Lafferty(黛西·埃德加-琼斯 饰)和其宝贝女儿于1984年被谋杀。
  在Jeb Pyre警探(安德鲁·加菲尔德 饰)调查Lafferty家庭内部事务时,他揭露了一些不为人知的秘密:耶稣基督后期圣徒教会(又称摩门教)起源,和坚定信仰带来的暴力后果。作为一名虔诚的摩门教徒,Pyre发现的东西让他开始质疑自己的信仰。
天堂旗帜下4k.Under.the.Banner.of.Heaven.S01E01.2160p.WEB.h265-4k美剧信息
  1. Video
  2. ID : 1
  3. Format : HEVC
  4. Format/Info : High Efficiency Video Coding
  5. Format profile : Main 10@L5.1@Main
  6. Codec ID : V_MPEGH/ISO/HEVC
  7. Duration : 1 h 8 min
  8. Bit rate : 15.5 Mb/s
  9. Width : 3 840 pixels
  10. Height : 2 160 pixels
  11. Display aspect ratio : 16:9
  12. Frame rate mode : Constant
  13. Frame rate : 23.976 (24000/1001) FPS
  14. Color space : YUV
  15. Chroma subsampling : 4:2:0
  16. Bit depth : 10 bits
  17. Bits/(Pixel*Frame) : 0.078
  18. Stream size : 7.47 GiB (98%)
  19. Language : English
  20. Default : Yes
  21. Forced : No

  22. Audio
  23. ID : 2
  24. Format : E-AC-3
  25. Format/Info : Enhanced AC-3
  26. Commercial name : Dolby Digital Plus
  27. Codec ID : A_EAC3
  28. Duration : 1 h 8 min
  29. Bit rate mode : Constant
  30. Bit rate : 256 kb/s
  31. Channel(s) : 6 channels
  32. Channel layout : L R C LFE Ls Rs
  33. Sampling rate : 48.0 kHz
  34. Frame rate : 31.250 FPS (1536 SPF)
  35. Compression mode : Lossy
  36. Delay relative to video : 24 ms
  37. Stream size : 126 MiB (2%)
  38. Language : English
  39. Service kind : Complete Main
  40. Default : Yes
  41. Forced : No

  42. Text
  43. ID : 3
  44. Format : UTF-8
  45. Codec ID : S_TEXT/UTF8
  46. Codec ID/Info : UTF-8 Plain Text
  47. Duration : 1 h 8 min
  48. Bit rate : 78 b/s
  49. Count of elements : 1339
  50. Stream size : 39.7 KiB (0%)
  51. Title : English
  52. Language : English
  53. Default : No
  54. Forced : No
复制代码

天堂旗帜下4k.Under.the.Banner.of.Heaven.S01E01.2160p.WEB.h265-4k美剧下载

天堂旗帜下4k.Under.the.Banner.of.Heaven.S01E01.2160p.WEB.h265【7.59 GB】
[4k视界]天堂旗帜下4k.Under.the.Banner.of.Heaven.S01E01.2160p.WEB.h265-KOGi.torrent (19.73 KB)
回复

使用道具 举报

   发表回复

您需要登录后才可以回帖 登录 | 立即注册

返回列表 本版积分规则

  • 帮助

  • 回顶部