4K世界

电视剧封面:
电视剧名: 我是遗物整理师4k
年  代: 2021  
国  家: 韩国
类  别: 剧情 
语  言: 其他
字  幕: 无字幕
上映日期: 2021-05-14
文件格式: mkv    
视频效果: 4K(3840x2160)    
资源大小: 50.79 GB
片  长: 45 分钟
导  演: 金成浩
剧情简介:  Move to Heaven:我是遗物整理师
  「有人死去时,我的工作就开始了」
  每个死亡背后都有一段故事
  我们将娓娓道来这些不为人知的故事,让它们永远流传
  现在,让我们协助您展开最后一趟旅程。
  《Move to Heaven:我是遗物整理师》,Netflix 独家
我是遗物整理师4k.Move.to.Heaven.S01.KOREAN.2160p.NF.WEB-DL.x265.10bit.HDR.DDP5.1-4k韩剧信息
  1. Video
  2. ID : 1
  3. Format : HEVC
  4. Format/Info : High Efficiency Video Coding
  5. Format profile : Main 10@L5@Main
  6. HDR format : Dolby Vision, Version 1.0, dvhe.08.06, BL+RPU, HDR10 compatible / SMPTE ST 2086, HDR10 compatible
  7. Codec ID : V_MPEGH/ISO/HEVC
  8. Duration : 1 h 0 min
  9. Bit rate : 13.3 Mb/s
  10. Width : 3 840 pixels
  11. Height : 2 160 pixels
  12. Display aspect ratio : 16:9
  13. Frame rate mode : Constant
  14. Frame rate : 23.976 (24000/1001) FPS
  15. Color space : YUV
  16. Chroma subsampling : 4:2:0 (Type 2)
  17. Bit depth : 10 bits
  18. Bits/(Pixel*Frame) : 0.067
  19. Stream size : 5.60 GiB (95%)
  20. Default : Yes
  21. Forced : No
  22. Color range : Limited
  23. Color primaries : BT.2020
  24. Transfer characteristics : PQ
  25. Matrix coefficients : BT.2020 non-constant
  26. Mastering display color primaries : Display P3
  27. Mastering display luminance : min: 0.0001 cd/m2, max: 1000 cd/m2
  28. Maximum Content Light Level : 1064 cd/m2
  29. Maximum Frame-Average Light Level : 233 cd/m2

  30. Audio
  31. ID : 2
  32. Format : E-AC-3
  33. Format/Info : Enhanced AC-3
  34. Commercial name : Dolby Digital Plus
  35. Codec ID : A_EAC3
  36. Duration : 1 h 1 min
  37. Bit rate mode : Constant
  38. Bit rate : 640 kb/s
  39. Channel(s) : 6 channels
  40. Channel layout : L R C LFE Ls Rs
  41. Sampling rate : 48.0 kHz
  42. Frame rate : 31.250 FPS (1536 SPF)
  43. Compression mode : Lossy
  44. Stream size : 283 MiB (5%)
  45. Language : Korean
  46. Service kind : Complete Main
  47. Default : Yes
  48. Forced : No

  49. Text #1
  50. ID : 3
  51. Format : UTF-8
  52. Codec ID : S_TEXT/UTF8
  53. Codec ID/Info : UTF-8 Plain Text
  54. Duration : 1 h 0 min
  55. Bit rate : 0 b/s
  56. Count of elements : 5
  57. Stream size : 95.0 Bytes (0%)
  58. Title : Forced
  59. Language : Korean
  60. Default : Yes
  61. Forced : Yes

  62. Text #2
  63. ID : 4
  64. Format : UTF-8
  65. Codec ID : S_TEXT/UTF8
  66. Codec ID/Info : UTF-8 Plain Text
  67. Duration : 1 h 0 min
  68. Bit rate : 72 b/s
  69. Count of elements : 854
  70. Stream size : 32.0 KiB (0%)
  71. Title : SDH
  72. Language : Korean
  73. Default : No
  74. Forced : No

  75. Text #3
  76. ID : 5
  77. Format : UTF-8
  78. Codec ID : S_TEXT/UTF8
  79. Codec ID/Info : UTF-8 Plain Text
  80. Duration : 1 h 0 min
  81. Bit rate : 35 b/s
  82. Count of elements : 571
  83. Stream size : 15.7 KiB (0%)
  84. Language : German
  85. Default : No
  86. Forced : No

  87. Text #4
  88. ID : 6
  89. Format : UTF-8
  90. Codec ID : S_TEXT/UTF8
  91. Codec ID/Info : UTF-8 Plain Text
  92. Duration : 59 min 53 s
  93. Bit rate : 37 b/s
  94. Count of elements : 662
  95. Stream size : 16.6 KiB (0%)
  96. Language : English
  97. Default : No
  98. Forced : No

  99. Text #5
  100. ID : 7
  101. Format : UTF-8
  102. Codec ID : S_TEXT/UTF8
  103. Codec ID/Info : UTF-8 Plain Text
  104. Duration : 1 h 0 min
  105. Bit rate : 36 b/s
  106. Count of elements : 552
  107. Stream size : 16.0 KiB (0%)
  108. Language : French
  109. Default : No
  110. Forced : No

  111. Text #6
  112. ID : 8
  113. Format : UTF-8
  114. Codec ID : S_TEXT/UTF8
  115. Codec ID/Info : UTF-8 Plain Text
  116. Duration : 1 h 0 min
  117. Bit rate : 57 b/s
  118. Count of elements : 554
  119. Stream size : 25.2 KiB (0%)
  120. Language : Russian
  121. Default : No
  122. Forced : No

  123. Text #7
  124. ID : 9
  125. Format : UTF-8
  126. Codec ID : S_TEXT/UTF8
  127. Codec ID/Info : UTF-8 Plain Text
  128. Duration : 1 h 0 min
  129. Bit rate : 57 b/s
  130. Count of elements : 564
  131. Stream size : 25.2 KiB (0%)
  132. Language : Ukrainian
  133. Default : No
  134. Forced : No

  135. Menu
  136. 00:00:00.000 : en:Part 01
  137. 00:56:16.450 : en:Credits
复制代码

我是遗物整理师4k.Move.to.Heaven.S01.KOREAN.2160p.NF.WEB-DL.x265.10bit.HDR.DDP5.1-4k韩剧下载

我是遗物整理师4k.Move.to.Heaven.S01.KOREAN.2160p.NF.WEB-DL.x265.10bit.HDR.DDP5.1【4k HDR 50.79 GB】
[4k视界]我是遗物整理师4k.Move.to.Heaven.S01.KOREAN.2160p.NF.WEB-DL.x265.10bit.HDR.DDP5.1-PANCAKES.torrent (65.06 KB)
回复

使用道具 举报

全部回复7

ybqwert 2022-5-18 20:08 显示全部楼层

ybqwert 2

2022-5-18 20:08

这个真一般,不知道为啥评分高
回复 支持 反对

使用道具 举报

chongqingblue 3

2022-5-20 19:33

没有字幕么
回复 支持 1 反对 0

使用道具 举报

zhangbei 2022-5-25 21:28 显示全部楼层

zhangbei 4

2022-5-25 21:28

字幕去哪里了,哪位大神提供下,谢谢
回复 支持 反对

使用道具 举报

tlq302 2022-6-9 21:02 显示全部楼层

tlq302 5

2022-6-9 21:02

有字幕可以下来看看。
回复 支持 反对

使用道具 举报

dshappy536 6

2022-9-8 08:16

尴尬,字母没有实在耐不合
回复 支持 反对

使用道具 举报

rsaudio 2022-9-10 07:18 显示全部楼层

rsaudio 7

2022-9-10 07:18

好片,可惜没有字幕啊!
回复 支持 反对

使用道具 举报

lijin8888 2022-10-10 22:33 显示全部楼层

lijin8888 8

2022-10-10 22:33

感谢分享楼主
回复 支持 反对

使用道具 举报

   发表回复

您需要登录后才可以回帖 登录 | 立即注册

返回列表 本版积分规则

  • 购买会员

  • 帮助

  • 回顶部