4K世界

电影封面:
片  名: The.Dunes
导  演: 马丁·科平
电影分类: 惊悚   
国  家: 其他 
年  代: 2021年
豆瓣评分: 0 分
分 辨 率: 4K(3840x2160)
资源特性:  
画质标准: SDR 
音质编码: Dolby Digital Plus Audio   
电影声道: 5.1声道    
帧数/FPS: 24.000 帧
电影语言: 原版字幕 
中文字幕: /thread-71443-1-1.html
剧情简介: A renowned journalist from the LA Times, who returns to his hometown of The Dunes and while he\'s there, a mysterious figure from his past arises and threatens his entire existence.
The.Dunes.4K 2021.2160p.STAN.WEB-DL.x265.8bit.SDR.DDP5.1-4k电影信息
  1. Video
  2. ID : 1
  3. Format : HEVC
  4. Format/Info : High Efficiency Video Coding
  5. Format profile : Main@L5@High
  6. Codec ID : V_MPEGH/ISO/HEVC
  7. Duration : 1 h 27 min
  8. Bit rate : 14.0 Mb/s
  9. Width : 3 840 pixels
  10. Height : 2 160 pixels
  11. Display aspect ratio : 16:9
  12. Frame rate mode : Constant
  13. Frame rate : 24.000 FPS
  14. Color space : YUV
  15. Chroma subsampling : 4:2:0
  16. Bit depth : 8 bits
  17. Bits/(Pixel*Frame) : 0.070
  18. Stream size : 8.52 GiB (97%)
  19. Default : Yes
  20. Forced : No
  21. Color range : Limited
  22. Color primaries : BT.709
  23. Transfer characteristics : BT.709
  24. Matrix coefficients : BT.709

  25. Audio
  26. ID : 2
  27. Format : E-AC-3
  28. Format/Info : Enhanced AC-3
  29. Commercial name : Dolby Digital Plus
  30. Codec ID : A_EAC3
  31. Duration : 1 h 27 min
  32. Bit rate mode : Constant
  33. Bit rate : 384 kb/s
  34. Channel(s) : 6 channels
  35. Channel layout : L R C LFE Ls Rs
  36. Sampling rate : 48.0 kHz
  37. Frame rate : 31.250 FPS (1536 SPF)
  38. Compression mode : Lossy
  39. Stream size : 240 MiB (3%)
  40. Language : English
  41. Service kind : Complete Main
  42. Default : Yes
  43. Forced : No

  44. Text #1
  45. ID : 3
  46. Format : UTF-8
  47. Codec ID : S_TEXT/UTF8
  48. Codec ID/Info : UTF-8 Plain Text
  49. Duration : 1 h 19 min
  50. Bit rate : 41 b/s
  51. Frame rate : 0.195 FPS
  52. Count of elements : 937
  53. Stream size : 24.3 KiB (0%)
  54. Language : English
  55. Default : No
  56. Forced : No

  57. Text #2
  58. ID : 4
  59. Format : UTF-8
  60. Codec ID : S_TEXT/UTF8
  61. Codec ID/Info : UTF-8 Plain Text
  62. Duration : 1 h 26 min
  63. Bit rate : 42 b/s
  64. Frame rate : 0.204 FPS
  65. Count of elements : 1058
  66. Stream size : 26.8 KiB (0%)
  67. Title : SDH
  68. Language : English
  69. Default : No
  70. Forced : No
复制代码

The.Dunes.2021.2160p.STAN.WEB-DL.x265.8bit.SDR.DDP5.1-4k电影下载

The.Dunes.4K 2021.2160p.STAN.WEB-DL.x265.8bit.SDR.DDP5.1【4k SDR 8.76 GB】
[4k世界]The.Dunes.2021.2160p.STAN.WEB-DL.x265.8bit.SDR.DDP5.1-SMURF.torrent (22.54 KB)
回复

使用道具 举报

全部回复3

slimwsy 22-8-24 22:19 显示全部楼层

slimwsy 2

22-8-24 22:19

评分怎么样,值得看么
回复 支持 反对

使用道具 举报

zgxman 22-9-22 09:27 显示全部楼层

zgxman 3

22-9-22 09:27

感谢分享
回复 支持 反对

使用道具 举报

asdsy 22-9-30 20:25 显示全部楼层

asdsy 4

22-9-30 20:25


终于有了,开心啊
回复 支持 反对

使用道具 举报

   发表回复

您需要登录后才可以回帖 登录 | 立即注册

返回列表 本版积分规则

  • 购买会员

  • 帮助

  • 回顶部