4K世界

电影封面:
片  名: 秘密总部4K
导  演: 亨利·朱斯特 / 阿里尔·舒曼
电影分类: 动作   科幻   冒险   
国  家: 美国 
年  代: 2022年
豆瓣评分: 4.9 分
分 辨 率: 4K(3840x2160)
资源特性:  
画质标准: HDR 
音质编码: Dolby-Atmos   Dolby Digital Plus Audio   
电影声道: 5.1声道    
帧数/FPS: 23.976 帧
电影语言: 原版字幕 
中文字幕: /thread-71473-1-1.html
剧情简介: 年轻的查理·金凯德在家中发现了一个秘密总部,似乎是属于一个超级英雄的。他告诉了他的朋友们,他们开始相信,与金凯德关系疏远的父亲可能过着秘密的双重生活。
秘密总部4K.Secret.Headquarters.2022.2160p.WEB-DL.x265.10bit.HDR.DDP5.1.Atmos-4K电影信息
  1. Video
  2. ID : 1
  3. Format : HEVC
  4. Format/Info : High Efficiency Video Coding
  5. Format profile : Main 10@L5@High
  6. HDR format : SMPTE ST 2086, HDR10 compatible
  7. Codec ID : V_MPEGH/ISO/HEVC
  8. Duration : 1 h 43 min
  9. Bit rate : 14.1 Mb/s
  10. Width : 3 840 pixels
  11. Height : 1 606 pixels
  12. Display aspect ratio : 2.40:1
  13. Frame rate mode : Constant
  14. Frame rate : 23.976 (24000/1001) FPS
  15. Color space : YUV
  16. Chroma subsampling : 4:2:0 (Type 2)
  17. Bit depth : 10 bits
  18. Bits/(Pixel*Frame) : 0.095
  19. Stream size : 10.2 GiB (93%)
  20. Language : English
  21. Default : Yes
  22. Forced : No
  23. Color range : Limited
  24. Color primaries : BT.2020
  25. Transfer characteristics : PQ
  26. Matrix coefficients : BT.2020 non-constant
  27. Mastering display color primaries : Display P3
  28. Mastering display luminance : min: 0.0050 cd/m2, max: 1000 cd/m2
  29. Maximum Content Light Level : 1858 cd/m2
  30. Maximum Frame-Average Light Level : 349 cd/m2

  31. Audio
  32. ID : 2
  33. Format : E-AC-3 JOC
  34. Format/Info : Enhanced AC-3 with Joint Object Coding
  35. Commercial name : Dolby Digital Plus with Dolby Atmos
  36. Codec ID : A_EAC3
  37. Duration : 1 h 43 min
  38. Bit rate mode : Constant
  39. Bit rate : 768 kb/s
  40. Channel(s) : 6 channels
  41. Channel layout : L R C LFE Ls Rs
  42. Sampling rate : 48.0 kHz
  43. Frame rate : 31.250 FPS (1536 SPF)
  44. Compression mode : Lossy
  45. Stream size : 570 MiB (5%)
  46. Language : English
  47. Service kind : Complete Main
  48. Default : Yes
  49. Forced : No
  50. Complexity index : 16
  51. Number of dynamic objects : 15
  52. Bed channel count : 1 channel
  53. Bed channel configuration : LFE

  54. Text
  55. ID : 3
  56. Format : UTF-8
  57. Codec ID : S_TEXT/UTF8
  58. Codec ID/Info : UTF-8 Plain Text
  59. Title : English
  60. Language : English
  61. Default : No
  62. Forced : No
复制代码

秘密总部4K.Secret.Headquarters.2022.2160p.WEB-DL.x265.10bit.HDR.DDP5.1.Atmos-4K电影下载

秘密总部4K.Secret.Headquarters.2022.2160p.WEB-DL.x265.10bit.HDR.DDP5.1.Atmos【4K HDR 10.98 GB】
[4K世界]秘密总部4K.Secret.Headquarters.2022.2160p.WEB-DL.x265.10bit.HDR.DDP5.1.Atmos-NAISU.torrent (14.44 KB, 售价: 2 个K币)
回复

使用道具 举报

全部回复12

我不知道啊 2

22-8-13 10:34

字幕字幕字幕字幕,没有字幕呀
回复 支持 2 反对 0

使用道具 举报

麦菌蕉 3

22-8-13 11:58

求字幕!!!
回复 支持 1 反对 0

使用道具 举报

renhongcheng 4

22-8-13 13:45

字幕!字幕!求字幕!
回复 支持 反对

使用道具 举报

xuekaigood1 5

22-8-26 21:41

应该好看,先下载再说
回复 支持 反对

使用道具 举报

小蜜蜂114 6

22-8-27 19:16

很好看非常好
回复 支持 反对

使用道具 举报

qnhk 22-8-29 23:02 显示全部楼层

qnhk 7

22-8-29 23:02

又是一个烂片 大家不要下了
回复 支持 1 反对 0

使用道具 举报

win850850 8

22-8-31 15:16

我不知道啊 发表于 22-8-13 10:34
字幕字幕字幕字幕,没有字幕呀

用电脑打开自动下载字幕到文件目录下,在用播放器直接播放就可以选择字幕了
回复 支持 反对

使用道具 举报

wsygdtc 22-9-10 11:00 显示全部楼层

wsygdtc 9

22-9-10 11:00

感谢分享
回复 支持 反对

使用道具 举报

18946441999 10

22-9-10 15:17

谢谢分享
回复 支持 反对

使用道具 举报

opop88889 11

22-9-23 08:23

谢谢分享
回复 支持 反对

使用道具 举报

myfreecity 12

22-9-26 19:10

win850850 发表于 22-8-31 15:16
用电脑打开自动下载字幕到文件目录下,在用播放器直接播放就可以选择字幕了

什么自动下载字幕???你是用软件还是?
回复 支持 反对

使用道具 举报

foxback 22-9-29 17:22 显示全部楼层

foxback 13

22-9-29 17:22

谁跟我一样前半段颜色是糊的,演员嘴唇都是紫色的
回复 支持 反对

使用道具 举报

   发表回复

您需要登录后才可以回帖 登录 | 立即注册

返回列表 本版积分规则

  • 购买会员

  • 帮助

  • 回顶部