4K世界

电影封面:
片  名: 露西的学校4K
导  演: 雷蒙德·S·佩尔西
电影分类: 动画   
国  家: 美国 
年  代: 2022年
豆瓣评分: 7.8 分
分 辨 率: 4K(3840x2160)
资源特性: 中简繁字幕   
画质标准: HDR 
音质编码: Dolby-Atmos   Dolby Digital Plus Audio   
电影声道: 5.1声道    
帧数/FPS: 23.976 帧
电影语言: 中文简体 中文繁体 原版字幕 
中文字幕: -
剧情简介:  When summer ends, the classroom fun begins. Start the school year with the Peanuts gang when Lucy\' sSchool premieres August 12 on Apple TV+.
Snoopy Presents: Lucy's School/露西的学校4K.Snoopy.Presents.Lucys.School.2022.2160p.ATVP.WEB-DL.x265.10bit.HDR.DDP5.1.Atmos-4K电影信息
  1. Video
  2. ID : 1
  3. Format : HEVC
  4. Format/Info : High Efficiency Video Coding
  5. Format profile : Main 10@L5@High
  6. HDR format : SMPTE ST 2086, HDR10 compatible
  7. Codec ID : V_MPEGH/ISO/HEVC
  8. Duration : 38 min 9 s
  9. Bit rate : 23.2 Mb/s
  10. Width : 3 840 pixels
  11. Height : 1 920 pixels
  12. Display aspect ratio : 2.000
  13. Frame rate mode : Constant
  14. Frame rate : 23.976 FPS
  15. Color space : YUV
  16. Chroma subsampling : 4:2:0 (Type 2)
  17. Bit depth : 10 bits
  18. Bits/(Pixel*Frame) : 0.131
  19. Stream size : 6.18 GiB (97%)
  20. Language : English
  21. Default : Yes
  22. Forced : No
  23. Color range : Limited
  24. Color primaries : BT.2020
  25. Transfer characteristics : PQ
  26. Matrix coefficients : BT.2020 non-constant
  27. Mastering display color primaries : Display P3
  28. Mastering display luminance : min: 0.0050 cd/m2, max: 1000 cd/m2
  29. Maximum Content Light Level : 4835 cd/m2
  30. Maximum Frame-Average Light Level : 231 cd/m2

  31. Audio
  32. ID : 2
  33. Format : E-AC-3 JOC
  34. Format/Info : Enhanced AC-3 with Joint Object Coding
  35. Commercial name : Dolby Digital Plus with Dolby Atmos
  36. Codec ID : A_EAC3
  37. Duration : 38 min 9 s
  38. Bit rate mode : Constant
  39. Bit rate : 768 kb/s
  40. Channel(s) : 6 channels
  41. Channel layout : L R C LFE Ls Rs
  42. Sampling rate : 48.0 kHz
  43. Frame rate : 31.250 FPS (1536 SPF)
  44. Compression mode : Lossy
  45. Stream size : 210 MiB (3%)
  46. Language : English
  47. Service kind : Complete Main
  48. Default : Yes
  49. Forced : No
  50. Complexity index : 16
  51. Number of dynamic objects : 15
  52. Bed channel count : 1 channel
  53. Bed channel configuration : LFE

  54. Text #1
  55. ID : 3
  56. Format : UTF-8
  57. Codec ID : S_TEXT/UTF8
  58. Codec ID/Info : UTF-8 Plain Text
  59. Duration : 35 min 34 s
  60. Bit rate : 59 b/s
  61. Frame rate : 0.198 FPS
  62. Count of elements : 422
  63. Stream size : 15.5 KiB (0%)
  64. Title : English
  65. Language : English
  66. Default : No
  67. Forced : No

  68. Text #2
  69. ID : 4
  70. Format : UTF-8
  71. Codec ID : S_TEXT/UTF8
  72. Codec ID/Info : UTF-8 Plain Text
  73. Duration : 36 min 13 s
  74. Bit rate : 68 b/s
  75. Frame rate : 0.254 FPS
  76. Count of elements : 551
  77. Stream size : 18.2 KiB (0%)
  78. Title : English (SDH)
  79. Language : English
  80. Default : No
  81. Forced : No

  82. Text #3
  83. ID : 5
  84. Format : UTF-8
  85. Codec ID : S_TEXT/UTF8
  86. Codec ID/Info : UTF-8 Plain Text
  87. Duration : 36 min 12 s
  88. Bit rate : 87 b/s
  89. Frame rate : 0.261 FPS
  90. Count of elements : 568
  91. Stream size : 23.1 KiB (0%)
  92. Title : English (CC)
  93. Language : English
  94. Default : No
  95. Forced : No


  96. Text #42
  97. ID : 44
  98. Format : UTF-8
  99. Codec ID : S_TEXT/UTF8
  100. Codec ID/Info : UTF-8 Plain Text
  101. Duration : 37 min 29 s
  102. Bit rate : 49 b/s
  103. Frame rate : 0.195 FPS
  104. Count of elements : 438
  105. Stream size : 13.5 KiB (0%)
  106. Title : 廣東話
  107. Language : Chinese
  108. Default : No
  109. Forced : No

  110. Text #43
  111. ID : 45
  112. Format : UTF-8
  113. Codec ID : S_TEXT/UTF8
  114. Codec ID/Info : UTF-8 Plain Text
  115. Duration : 37 min 29 s
  116. Bit rate : 48 b/s
  117. Frame rate : 0.194 FPS
  118. Count of elements : 437
  119. Stream size : 13.2 KiB (0%)
  120. Title : 中文(简体)
  121. Language : Chinese
  122. Default : No
  123. Forced : No

  124. Text #44
  125. ID : 46
  126. Format : UTF-8
  127. Codec ID : S_TEXT/UTF8
  128. Codec ID/Info : UTF-8 Plain Text
  129. Duration : 37 min 29 s
  130. Bit rate : 50 b/s
  131. Frame rate : 0.195 FPS
  132. Count of elements : 438
  133. Stream size : 13.8 KiB (0%)
  134. Title : 中文(繁體)
  135. Language : Chinese
  136. Default : No
  137. Forced : No
复制代码

Snoopy Presents: Lucy's School/露西的学校4K.Snoopy.Presents.Lucys.School.2022.2160p.ATVP.WEB-DL.x265.10bit.HDR.DDP5.1.Atmos-4K电影下载

露西的学校4K.Snoopy.Presents.Lucys.School.2022.2160p.ATVP.WEB-DL.x265.10bit.HDR.DDP5.1.Atmos-简繁中字【4K HDR 6.39 GB】
[4K世界]露西的学校4K.Snoopy.Presents.Lucys.School.2022.2160p.ATVP.WEB-DL.x265.10bit.HDR.DDP5.1.Atmos-SALT.torrent (16.72 KB, 售价: 3 个K币)
回复

使用道具 举报

全部回复3

zgxman 22-9-20 18:19 显示全部楼层

zgxman 2

22-9-20 18:19

感谢分享
回复 支持 反对

使用道具 举报

执守丶 3

22-9-22 08:44

这个不就是英语书的动画人物
回复 支持 反对

使用道具 举报

zgxman 22-9-28 09:00 显示全部楼层

zgxman 4

22-9-28 09:00

大爱史努比
回复 支持 反对

使用道具 举报

   发表回复

您需要登录后才可以回帖 登录 | 立即注册

返回列表 本版积分规则

  • 购买会员

  • 帮助

  • 回顶部