4K世界

[抢先资源] 分手的决心.Decision to Leave 2022.1080p电影下载

22-9-15 12:54 1607 6 |只看大图 回帖奖励 |倒序浏览 |阅读模式

静待花开 帖主

22-8-22 22:00

分手的决心2.jpg
报复式分手 / Decision to Leave/分手的决心.Decision to Leave 2022.1080p WEB-DL AAC5.1 H.264-资源信息

  1. Complete name                  : \Decision.to.Leave.2022.1080p.WEB-DL.AAC5.1.H.264
  2. Format                         : Matroska
  3. Format version                 : Version 4
  4. File size                      : 7.99 GiB
  5. Duration                       : 2 h 18 min
  6. Overall bit rate               : 8 262 kb/s
  7. Encoded date                   : UTC 2022-08-21 04:50:39
  8. Writing application            : mkvmerge v20.0.0 ('I Am The Sun') 64-bit
  9. Writing library                : libebml v1.3.5 + libmatroska v1.4.8 / Lavf59.16.100

  10. Video
  11. ID                             : 1
  12. Format                         : AVC
  13. Format/Info                    : Advanced Video Codec
  14. Format profile                 : Main@L4
  15. Format settings                : CABAC / 2 Ref Frames
  16. Format settings, CABAC         : Yes
  17. Format settings, Reference fra : 2 frames
  18. Format settings, GOP           : M=1, N=30
  19. Codec ID                       : V_MPEG4/ISO/AVC
  20. Duration                       : 2 h 18 min
  21. Bit rate mode                  : Constant
  22. Bit rate                       : 8 000 kb/s
  23. Width                          : 1 920 pixels
  24. Height                         : 1 080 pixels
  25. Display aspect ratio           : 16:9
  26. Frame rate mode                : Constant
  27. Frame rate                     : 23.976 (24000/1001) FPS
  28. Color space                    : YUV
  29. Chroma subsampling             : 4:2:0
  30. Bit depth                      : 8 bits
  31. Scan type                      : Progressive
  32. Bits/(Pixel*Frame)             : 0.161
  33. Stream size                    : 7.74 GiB (97%)
  34. Default                        : Yes
  35. Forced                         : No

  36. Audio
  37. ID                             : 2
  38. Format                         : AAC LC SBR
  39. Format/Info                    : Advanced Audio Codec Low Complexity with Spectral Band Replication/4ksj
  40. Commercial name                : HE-AAC
  41. Format settings                : Implicit
  42. Codec ID                       : A_AAC-2
  43. Duration                       : 2 h 18 min
  44. Bit rate                       : 192 kb/s
  45. Channel(s)                     : 6 channels
  46. Channel layout                 : C L R Ls Rs LFE
  47. Sampling rate                  : 48.0 kHz
  48. Frame rate                     : 23.438 FPS (2048 SPF)
  49. Compression mode               : Lossy
  50. Stream size                    : 190 MiB (2%)
  51. Default                        : Yes
  52. Forced                         : No

  53. Text
  54. ID                             : 3
  55. Format                         : PGS
  56. Muxing mode                    : zlib
  57. Codec ID                       : S_HDMV/PGS
  58. Codec ID/Info                  : Picture based subtitle format used on BDs/HD-DVDs
  59. Duration                       : 2 h 17 min
  60. Bit rate                       : 164 kb/s
  61. Count of elements              : 8848
  62. Stream size                    : 161 MiB (2%)
  63. Title                          : 简中特效
  64. Language                       : Chinese
  65. Default                        : Yes
  66. Forced                         : No
复制代码

报复式分手 / Decision to Leave/分手的决心.Decision to Leave 2022.1080p WEB-DL AAC5.1 H.264-资源下载

分手的决心.Decision to Leave 2022.1080p WEB-DL AAC5.1 H.264.DIY特效字幕+内封简中特效+繁中特效【8.06 GB 】
[4K世界]分手的决心.Decision.to.Leave.2022.1080p.WEB-DL.AAC5.1.H.264[特效字幕 内封简中特效 繁中特效]-4KSJ.torrent (47.18 KB)
回复

使用道具 举报

全部回复6

crd12315 2

22-8-27 01:17

不错的片子
回复 支持 反对

使用道具 举报

山水寥廓登高望 3

22-8-28 11:09

这部片子看大家的口碑还不错啊。而且汤唯也不错。
回复 支持 反对

使用道具 举报

大海460623 4

22-8-29 10:50

不错的片子
回复 支持 反对

使用道具 举报

konamiboy 5

22-9-5 18:51

很不错的悬疑片
回复 支持 反对

使用道具 举报

a46173115 6

22-9-13 20:17

谢谢版主无私分享
回复 支持 反对

使用道具 举报

my3675050 7

22-9-15 12:54

好片啊,谢谢楼主分享!!!!
回复 支持 反对

使用道具 举报

   发表回复

您需要登录后才可以回帖 登录 | 立即注册

返回列表 本版积分规则

:
4K进阶玩家
:
未填写

主题

帖子

积分1384

图文推荐

  • 购买会员

  • 帮助

  • 回顶部