4K世界

电影封面:
片  名: 撒玛利亚 4K
导  演: 朱利叶斯·艾弗里
电影分类: 动作   科幻   剧情   奇幻   
国  家: 美国 
年  代: 2022年
豆瓣评分: 5.1 分
分 辨 率: 4K(3840x2160)
资源特性: 中简繁字幕   
画质标准: HDR HDR10 
音质编码: Dolby Digital Plus Audio   
电影声道: 5.1声道    
帧数/FPS: 23.976 帧
电影语言: 中文简体 中文繁体 原版字幕 
中文字幕: /thread-71599-1-1.html
剧情简介:   西尔维斯特·史泰龙旗下制片公司巴尔博亚制片公司(Balboa Productions)将打造多部影片,其中史泰龙或将参演两部影片[撒玛利亚](Samaritan,暂译)及[亨特](Hunter,暂译)。
  [撒玛利亚]由布拉吉·F·舒特编剧,该片定义为黑暗且具有新鲜感的超级英雄题材影片
撒玛利亚4k.Samaritan.2022.2160p.AMZN.WEB-DL.x265.10bit.HDR10Plus.DDP5.1-4K电影信息
  1. Video
  2. ID : 1
  3. Format : HEVC
  4. Format/Info : High Efficiency Video Coding
  5. Format profile : Main 10@L5@Main
  6. HDR format : SMPTE ST 2094 App 4, Version 1, HDR10+ Profile B compatible
  7. Codec ID : V_MPEGH/ISO/HEVC
  8. Duration : 1 h 42 min
  9. Bit rate : 14.5 Mb/s
  10. Width : 3 840 pixels
  11. Height : 1 600 pixels
  12. Display aspect ratio : 2.40:1
  13. Frame rate mode : Constant
  14. Frame rate : 23.976 (24000/1001) FPS
  15. Color space : YUV
  16. Chroma subsampling : 4:2:0
  17. Bit depth : 10 bits
  18. Bits/(Pixel*Frame) : 0.099
  19. Stream size : 10.4 GiB (96%)
  20. Language : English
  21. Default : Yes
  22. Forced : No
  23. Color range : Limited
  24. Color primaries : BT.2020
  25. Transfer characteristics : PQ
  26. Matrix coefficients : BT.2020 non-constant
  27. Mastering display color primaries : Display P3
  28. Mastering display luminance : min: 0.0001 cd/m2, max: 1000 cd/m2
  29. Maximum Content Light Level : 999 cd/m2
  30. Maximum Frame-Average Light Level : 611 cd/m2

  31. Audio
  32. ID : 2
  33. Format : E-AC-3
  34. Format/Info : Enhanced AC-3
  35. Commercial name : Dolby Digital Plus
  36. Codec ID : A_EAC3
  37. Duration : 1 h 42 min
  38. Bit rate mode : Constant
  39. Bit rate : 640 kb/s
  40. Channel(s) : 6 channels
  41. Channel layout : L R C LFE Ls Rs
  42. Sampling rate : 48.0 kHz
  43. Frame rate : 31.250 FPS (1536 SPF)
  44. Compression mode : Lossy
  45. Stream size : 468 MiB (4%)
  46. Language : English
  47. Service kind : Complete Main
  48. Default : Yes
  49. Forced : No

  50. Text #1
  51. ID : 3
  52. Format : UTF-8
  53. Codec ID : S_TEXT/UTF8
  54. Codec ID/Info : UTF-8 Plain Text
  55. Duration : 1 h 33 min
  56. Bit rate : 52 b/s
  57. Frame rate : 0.252 FPS
  58. Count of elements : 1423
  59. Stream size : 36.4 KiB (0%)
  60. Language : English
  61. Default : No
  62. Forced : No

  63. Text #2
  64. ID : 4
  65. Format : UTF-8
  66. Codec ID : S_TEXT/UTF8
  67. Codec ID/Info : UTF-8 Plain Text
  68. Duration : 1 h 38 min
  69. Bit rate : 69 b/s
  70. Frame rate : 0.198 FPS
  71. Count of elements : 1174
  72. Stream size : 50.0 KiB (0%)
  73. Language : Arabic
  74. Default : No
  75. Forced : No


  76. Text #40
  77. ID : 42
  78. Format : UTF-8
  79. Codec ID : S_TEXT/UTF8
  80. Codec ID/Info : UTF-8 Plain Text
  81. Duration : 1 h 38 min
  82. Bit rate : 39 b/s
  83. Frame rate : 0.200 FPS
  84. Count of elements : 1184
  85. Stream size : 28.9 KiB (0%)
  86. Title : Simplified
  87. Language : Chinese
  88. Default : No
  89. Forced : No

  90. Text #41
  91. ID : 43
  92. Format : UTF-8
  93. Codec ID : S_TEXT/UTF8
  94. Codec ID/Info : UTF-8 Plain Text
  95. Duration : 1 h 38 min
  96. Bit rate : 39 b/s
  97. Frame rate : 0.200 FPS
  98. Count of elements : 1182
  99. Stream size : 28.3 KiB (0%)
  100. Title : Traditional
  101. Language : Chinese
  102. Default : No
  103. Forced : No
复制代码

撒玛利亚4k.Samaritan.2022.2160p.AMZN.WEB-DL.x265.10bit.HDR10Plus.DDP5.1-4K电影下载

撒玛利亚4k.Samaritan.2022.2160p.AMZN.WEB-DL.x265.10bit.HDR10Plus.DDP5.1-简繁中字【4K HDR 10.83 GB】
[4K世界]撒玛利亚4K.Samaritan.2022.2160p.AMZN.WEB-DL.x265.10bit.HDR10Plus.DDP5.1-CM.torrent (14.17 KB, 售价: 5 个K币)
回复

使用道具 举报

全部回复170

ddybeyond 来自 2楼

22-8-27 11:15

我大大加大度u博文大大大和度我大的就我第我厚德和i啊我的胃口的看法我

评分

参与人数 1活跃 -20 收起 理由 (评分规则)
花落无声 -20 违反论坛规则:无阅读意义内容(第五章第5.

查看全部评分

回复 支持 1 反对 0

使用道具 举报

aaa12128585 来自 3楼

22-9-3 22:34

发v古典风格东风股份电饭锅

评分

参与人数 1活跃 -20 收起 理由 (评分规则)
花落无声 -20 违反论坛规则:无阅读意义内容(第五章第5.

查看全部评分

回复 支持 反对

使用道具 举报

aaa12128585 来自 4楼

22-9-3 22:35

史蒂夫史蒂夫史蒂夫史蒂夫史蒂夫史蒂夫史蒂夫打发打发

评分

参与人数 1K币 -100 收起 理由 (评分规则)
花落无声 -100 违反论坛规则:无阅读意义内容(第五章第5.

查看全部评分

回复 支持 反对

使用道具 举报

hao4kyxg 5

22-8-26 15:11

史泰龙新片,应该很不错,感谢楼主
回复 支持 反对

使用道具 举报

hhhz 22-8-26 15:35 显示全部楼层

hhhz 6

22-8-26 15:35

兰博新片,下来看看。
回复 支持 1 反对 0

使用道具 举报

jyd0818 22-8-26 15:39 显示全部楼层

jyd0818 7

22-8-26 15:39

硬汉的电影  不错
回复 支持 反对

使用道具 举报

yi1335 22-8-26 16:29 显示全部楼层

yi1335 8

22-8-26 16:29

应该很不错,感谢楼主
回复 支持 反对

使用道具 举报

小愉儿 9

22-8-26 17:03

谢谢楼主的分享!
回复 支持 1 反对 0

使用道具 举报

zunu123 22-8-26 17:45 显示全部楼层

zunu123 11

22-8-26 17:45


谢谢楼主的分享!
回复 支持 反对

使用道具 举报

cfpki 22-8-26 19:44 显示全部楼层

cfpki 12

22-8-26 19:44

硬核,还是当初的史泰龙。
回复 支持 反对

使用道具 举报

ralf 22-8-26 20:02 显示全部楼层

ralf 13

22-8-26 20:02

史泰龍是否出演超能力者未好過...!
回复 支持 反对

使用道具 举报

大蜘蛛 14

22-8-26 20:59

支持史泰龙新片
回复 支持 反对

使用道具 举报

blucesky 15

22-8-26 21:27

感谢楼主分享
回复 支持 反对

使用道具 举报

67942 22-8-26 21:38 显示全部楼层

67942 16

22-8-26 21:38

屎太浓新片?
回复 支持 反对

使用道具 举报

lzw413 22-8-26 22:09 显示全部楼层

lzw413 17

22-8-26 22:09

想到中文了
回复 支持 反对

使用道具 举报

hong711 22-8-26 23:01 显示全部楼层

hong711 18

22-8-26 23:01

新片,内容不管如何。先谢楼主的分享🙏
回复 支持 反对

使用道具 举报

crd12315 19

22-8-26 23:05

看看怎么样
回复 支持 反对

使用道具 举报

seraphimlucifer 20

22-8-27 01:14

幸福啊~~~
回复 支持 反对

使用道具 举报

kzm1017 22-8-27 01:31 显示全部楼层

kzm1017 21

22-8-27 01:31

史泰龙新片吗? 差点以为封面是老麦  支持 谢谢楼主
回复 支持 反对

使用道具 举报

   发表回复

您需要登录后才可以回帖 登录 | 立即注册

返回列表 本版积分规则

  • 购买会员

  • 帮助

  • 回顶部