4K世界

指环王剧版 / 魔戒 / The Lord of the Rings / 指环王:权能之戒 / 魔戒:統御魔戒/指环王:力量之戒 第一季4K.The.Lord.of.the.Rings.The.Rings.of.Power.S01E01.2160p.AMZN.WEB-DL.x265.10bit.HDR10Plus.DDP5.1.Atmos-4K美剧信息
  1. Video
  2. ID : 1
  3. Format : HEVC
  4. Format/Info : High Efficiency Video Coding
  5. Format profile : Main 10@L5@Main
  6. HDR format : SMPTE ST 2094 App 4, Version 1, HDR10+ Profile B compatible
  7. Codec ID : V_MPEGH/ISO/HEVC
  8. Duration : 1 h 5 min
  9. Bit rate : 13.6 Mb/s
  10. Width : 3 840 pixels
  11. Height : 1 600 pixels
  12. Display aspect ratio : 2.40:1
  13. Frame rate mode : Constant
  14. Frame rate : 24.000 FPS
  15. Color space : YUV
  16. Chroma subsampling : 4:2:0
  17. Bit depth : 10 bits
  18. Bits/(Pixel*Frame) : 0.092
  19. Stream size : 6.25 GiB (97%)
  20. Default : Yes
  21. Forced : No
  22. Color range : Limited
  23. Color primaries : BT.2020
  24. Transfer characteristics : PQ
  25. Matrix coefficients : BT.2020 non-constant
  26. Mastering display color primaries : Display P3
  27. Mastering display luminance : min: 0.0001 cd/m2, max: 1000 cd/m2
  28. Maximum Content Light Level : 173 cd/m2
  29. Maximum Frame-Average Light Level : 171 cd/m2

  30. Audio
  31. ID : 2
  32. Format : E-AC-3 JOC
  33. Format/Info : Enhanced AC-3 with Joint Object Coding
  34. Commercial name : Dolby Digital Plus with Dolby Atmos
  35. Codec ID : A_EAC3
  36. Duration : 1 h 5 min
  37. Bit rate mode : Constant
  38. Bit rate : 448 kb/s
  39. Channel(s) : 6 channels
  40. Channel layout : L R C LFE Ls Rs
  41. Sampling rate : 48.0 kHz
  42. Frame rate : 31.250 FPS (1536 SPF)
  43. Compression mode : Lossy
  44. Stream size : 211 MiB (3%)
  45. Language : English
  46. Service kind : Complete Main
  47. Default : Yes
  48. Forced : No
  49. Complexity index : 16
  50. Number of dynamic objects : 15
  51. Bed channel count : 1 channel
  52. Bed channel configuration : LFE

  53. Text #1
  54. ID : 3
  55. Format : UTF-8
  56. Codec ID : S_TEXT/UTF8
  57. Codec ID/Info : UTF-8 Plain Text
  58. Duration : 9 min 13 s
  59. Bit rate : 0 b/s
  60. Frame rate : 0.005 FPS
  61. Count of elements : 3
  62. Stream size : 68.0 Bytes (0%)
  63. Title : Forced
  64. Language : English
  65. Default : Yes
  66. Forced : Yes

  67. Text #2
  68. ID : 4
  69. Format : UTF-8
  70. Codec ID : S_TEXT/UTF8
  71. Codec ID/Info : UTF-8 Plain Text
  72. Duration : 57 min 30 s
  73. Bit rate : 47 b/s
  74. Frame rate : 0.182 FPS
  75. Count of elements : 627
  76. Stream size : 19.8 KiB (0%)
  77. Language : English
  78. Default : No
  79. Forced : No

  80. Text #3
  81. ID : 5
  82. Format : UTF-8
  83. Codec ID : S_TEXT/UTF8
  84. Codec ID/Info : UTF-8 Plain Text
  85. Duration : 59 min 7 s
  86. Bit rate : 52 b/s
  87. Frame rate : 0.215 FPS
  88. Count of elements : 761
  89. Stream size : 22.9 KiB (0%)
  90. Title : SDH
  91. Language : English
  92. Default : No
  93. Forced : No
  94. Text #42
  95. ID : 44
  96. Format : UTF-8
  97. Codec ID : S_TEXT/UTF8
  98. Codec ID/Info : UTF-8 Plain Text
  99. Duration : 1 h 2 min
  100. Bit rate : 41 b/s
  101. Frame rate : 0.168 FPS
  102. Count of elements : 630
  103. Stream size : 18.9 KiB (0%)
  104. Title : Simplified
  105. Language : Chinese
  106. Default : No
  107. Forced : No

  108. Text #43
  109. ID : 45
  110. Format : UTF-8
  111. Codec ID : S_TEXT/UTF8
  112. Codec ID/Info : UTF-8 Plain Text
  113. Duration : 1 h 2 min
  114. Bit rate : 37 b/s
  115. Frame rate : 0.168 FPS
  116. Count of elements : 630
  117. Stream size : 17.3 KiB (0%)
  118. Title : Traditional
  119. Language : Chinese
  120. Default : No
  121. Forced : No

  122. Menu
  123. 00:00:00.000 : en:Prime Video
  124. 00:00:05.000 : en:Scene 2
  125. 00:02:12.000 : en:Scene 3
  126. 00:04:23.000 : en:Scene 4
  127. 00:04:52.000 : en:Scene 5
  128. 00:06:57.000 : en:Scene 6
  129. 00:07:29.000 : en:Scene 7
  130. 00:09:58.000 : en:Scene 8
  131. 00:11:43.000 : en:Scene 9
  132. 00:14:47.000 : en:Scene 10
  133. 00:17:27.000 : en:Title Sequence
  134. 00:17:36.000 : en:Scene 12
  135. 00:18:46.000 : en:Scene 13
  136. 00:20:29.000 : en:Scene 14
  137. 00:22:57.000 : en:Scene 15
  138. 00:24:16.000 : en:Scene 16
  139. 00:26:48.000 : en:Scene 17
  140. 00:27:28.000 : en:Scene 18
  141. 00:29:31.000 : en:Scene 19
  142. 00:31:53.000 : en:Scene 20
  143. 00:36:27.000 : en:Scene 21
  144. 00:37:46.000 : en:Scene 22
  145. 00:39:41.000 : en:Scene 23
  146. 00:41:23.000 : en:Scene 24
  147. 00:42:10.000 : en:Scene 25
  148. 00:42:49.000 : en:Scene 26
  149. 00:44:40.000 : en:Scene 27
  150. 00:46:32.000 : en:Scene 28
  151. 00:47:32.000 : en:Scene 29
  152. 00:49:15.000 : en:Scene 30
  153. 00:49:35.000 : en:Scene 31
  154. 00:51:28.000 : en:Scene 32
  155. 00:52:28.000 : en:Scene 33
  156. 00:53:47.000 : en:Scene 34
  157. 00:56:19.000 : en:Scene 35
  158. 00:56:33.000 : en:Scene 36
  159. 00:56:55.000 : en:Scene 37
  160. 00:57:07.000 : en:Scene 38
  161. 00:57:33.000 : en:Scene 39
  162. 00:58:09.000 : en:Scene 40
  163. 00:58:14.000 : en:Scene 41
  164. 00:58:40.000 : en:Scene 42
  165. 00:59:06.000 : en:Scene 43
  166. 00:59:42.000 : en:End Credits
复制代码

指环王剧版 / 魔戒 / The Lord of the Rings / 指环王:权能之戒 / 魔戒:統御魔戒/指环王:力量之戒 第一季4K.The.Lord.of.the.Rings.The.Rings.of.Power.S01E01.2160p.AMZN.WEB-DL.x265.10bit.HDR10Plus.DDP5.1.Atmos-4K美剧下载
迅雷云链接包含第一季第1集、第2集、第3集、第4集、第5集、第6集
增加杜比视界版,另外打不开的请换个浏览器或换台电脑试下,本人测试是可以打开下载的。
增加SDR版本,不支持杜比视界和HDR的,请下载SDR版本

p2877729106.webp.jpg

迅雷网盘.txt

195 Bytes

售价: 3 个K币  [记录]

回复

使用道具 举报

全部回复139

窝窝60 2

22-9-2 14:25

来了来了
回复 支持 反对

使用道具 举报

金金金金 3

22-9-2 14:32

期待!
回复 支持 反对

使用道具 举报

YGG0601 4

22-9-2 14:41

可以可以可以!!!!!!!!!!!!!
回复 支持 反对

使用道具 举报

liuji1234 5

22-9-2 14:43

好看吗???
回复 支持 反对

使用道具 举报

lvxiaobu0777 6

22-9-2 15:03

打不开啊
回复 支持 反对

使用道具 举报

亨利先生 7

22-9-2 15:07

打不开啊
回复 支持 反对

使用道具 举报

lee0429 8

22-9-2 15:16

支持一波~~~~~
回复 支持 反对

使用道具 举报

tomtian0752 9

22-9-2 15:18

发布的太快了!感谢楼主分享!不知道是否会出杜比视界版的?
回复 支持 反对

使用道具 举报

qianpp 22-9-2 15:43 显示全部楼层

qianpp 10

22-9-2 15:43

有字幕吗
回复 支持 反对

使用道具 举报

幽瑟临风 11

22-9-2 15:49

好哇,哈哈谢谢
回复 支持 反对

使用道具 举报

毛毛雨很大 12

22-9-2 15:52

没积分啊!!!!55555555555555
回复 支持 反对

使用道具 举报

du123 22-9-2 16:28 显示全部楼层

du123 13

22-9-2 16:28

来了来了
回复 支持 反对

使用道具 举报

xxc811219 14

22-9-2 16:35

打不开啊
回复 支持 反对

使用道具 举报

leolee110 15

22-9-2 16:38

终于来了
回复 支持 反对

使用道具 举报

开开心心学习 16

22-9-2 16:47

来了来了,带着微笑走来了
回复 支持 反对

使用道具 举报

china888340 17

22-9-2 17:45

打不开
回复 支持 反对

使用道具 举报

YGG0601 18

22-9-2 17:46

字幕字幕字幕字幕
回复 支持 反对

使用道具 举报

   发表回复

您需要登录后才可以回帖 登录 | 立即注册

返回列表 本版积分规则

  • 购买会员

  • 帮助

  • 回顶部