4K世界

电影封面:
片  名: 晚安妈咪4k
导  演: 马特·索贝尔
电影分类: 犯罪   惊悚   剧情   悬疑   
国  家: 美国 
年  代: 2022年
豆瓣评分: 0 分
分 辨 率: 4K(3840x2160)
资源特性:  
画质标准: HDR10 
音质编码: Dolby Digital Plus Audio   
电影声道: 5.1声道    
帧数/FPS: 23.976 帧
电影语言: 原版字幕 
中文字幕: -
剧情简介: 奥地利恐怖片《晚安妈咪》将翻拍一部英语版。娜奥米·沃茨主演,马特·索贝尔(《往事如河》)执导,原版导演赛佛林·费奥拉&维罗妮卡·弗兰茨担任执行制作人,Playtime等制片,Amazon注资和负责全球发行。讲述一对双胞胎小男孩跟妈妈住在一起,某天妈妈回来,他们发现她缠上了绷带,行为举止也变得很反常,两人开始怀疑:是不是有人冒充了妈妈?然而……
晚安妈咪 美国版/晚安妈咪4k.Goodnight.Mommy.2022.2160p.AMZN.WEB-DL.x265.10bit.HDR10Plus.DDP5.1-4k电影信息
  1. Video
  2. ID : 1
  3. Format : HEVC
  4. Format/Info : High Efficiency Video Coding
  5. Format profile : Main 10@L5@Main
  6. HDR format : SMPTE ST 2094 App 4, Version 1, HDR10+ Profile B compatible
  7. Codec ID : V_MPEGH/ISO/HEVC
  8. Duration : 1 h 32 min
  9. Bit rate : 14.2 Mb/s
  10. Width : 3 840 pixels
  11. Height : 2 080 pixels
  12. Display aspect ratio : 1.85:1
  13. Frame rate mode : Constant
  14. Frame rate : 23.976 (24000/1001) FPS
  15. Color space : YUV
  16. Chroma subsampling : 4:2:0
  17. Bit depth : 10 bits
  18. Bits/(Pixel*Frame) : 0.074
  19. Stream size : 9.15 GiB (94%)
  20. Default : Yes
  21. Forced : No
  22. Color range : Limited
  23. Color primaries : BT.2020
  24. Transfer characteristics : PQ
  25. Matrix coefficients : BT.2020 non-constant
  26. Mastering display color primaries : Display P3
  27. Mastering display luminance : min: 0.0001 cd/m2, max: 1000 cd/m2
  28. Maximum Content Light Level : 279 cd/m2
  29. Maximum Frame-Average Light Level : 101 cd/m2

  30. Audio
  31. ID : 2
  32. Format : E-AC-3
  33. Format/Info : Enhanced AC-3
  34. Commercial name : Dolby Digital Plus
  35. Codec ID : A_EAC3
  36. Duration : 1 h 32 min
  37. Bit rate mode : Constant
  38. Bit rate : 640 kb/s
  39. Channel(s) : 6 channels
  40. Channel layout : L R C LFE Ls Rs
  41. Sampling rate : 48.0 kHz
  42. Frame rate : 31.250 FPS (1536 SPF)
  43. Compression mode : Lossy
  44. Stream size : 422 MiB (4%)
  45. Language : English
  46. Service kind : Complete Main
  47. Default : Yes
  48. Forced : No

  49. Text #1
  50. ID : 3
  51. Format : UTF-8
  52. Codec ID : S_TEXT/UTF8
  53. Codec ID/Info : UTF-8 Plain Text
  54. Title : English [SDH]
  55. Language : English
  56. Default : No
  57. Forced : No

  58. Text #2
  59. ID : 4
  60. Format : UTF-8
  61. Codec ID : S_TEXT/UTF8
  62. Codec ID/Info : UTF-8 Plain Text
  63. Title : Arabic
  64. Language : Arabic
  65. Default : No
  66. Forced : No

  67. Text #3
  68. ID : 5
  69. Format : UTF-8
  70. Codec ID : S_TEXT/UTF8
  71. Codec ID/Info : UTF-8 Plain Text
  72. Title : Chinese Simplified
  73. Language : Chinese
  74. Default : No
  75. Forced : No

  76. Text #4
  77. ID : 6
  78. Format : UTF-8
  79. Codec ID : S_TEXT/UTF8
  80. Codec ID/Info : UTF-8 Plain Text
  81. Title : Chinese Traditional
  82. Language : Chinese
  83. Default : No
  84. Forced : No

  85. Text #5
  86. ID : 7
  87. Format : UTF-8
  88. Codec ID : S_TEXT/UTF8
  89. Codec ID/Info : UTF-8 Plain Text
  90. Title : Czech (Czechia)
  91. Language : Czech
  92. Default : No
  93. Forced : No
复制代码

晚安妈咪 美国版/晚安妈咪4k.Goodnight.Mommy.2022.2160p.AMZN.WEB-DL.x265.10bit.HDR10Plus.DDP5.1-4k电影下载
晚安妈咪4k.Goodnight.Mommy.2022.2160p.AMZN.WEB-DL.x265.10bit.HDR10Plus.DDP5.1【9.87 GB】
[4k世界]晚安妈咪4k.Goodnight.Mommy.2022.2160p.AMZN.WEB-DL.x265.10bit.HDR10Plus.DDP5.1-NAISU.torrent (25.46 KB)
回复

使用道具 举报

全部回复3

hhhz 22-9-16 18:17 显示全部楼层

hhhz 2

22-9-16 18:17

2014年同名奥地利电影翻拍美版,亚马逊Prime出品,总体还行。
回复 支持 反对

使用道具 举报

knlzq 22-9-18 20:54 显示全部楼层

knlzq 3

22-9-18 20:54

谢谢楼主
回复 支持 反对

使用道具 举报

执守丶 4

22-9-27 08:48

感谢分享,还不错
回复 支持 反对

使用道具 举报

   发表回复

您需要登录后才可以回帖 登录 | 立即注册

返回列表 本版积分规则

  • 购买会员

  • 帮助

  • 回顶部