4K世界

电影封面:
片  名: 邀请函4k
导  演: 杰西卡·M·汤普森
电影分类: 恐怖   惊悚   
国  家: 美国 
年  代: 2022年
豆瓣评分: 5.0 分
分 辨 率: 4K(3840x2160)
资源特性:  
画质标准: HDR10 
音质编码: Dolby Digital Audio   
电影声道: 5.1声道    
帧数/FPS: 23.976 帧
电影语言: 原版字幕 
中文字幕: /thread-71878-1-1.html
剧情简介:  该片故事灵感来自于布莱姆·斯托克的经典小说《德古拉》,是一部当代恐怖惊悚片,讲述一个年轻女子因被追求而变得神魂颠倒,但她意识到,一个哥特式的阴谋正在发生。
世纪婚魇(台) / 致命邀请 / 新娘 / The Bride/邀请函4k.The.Invitation.2022.UNRATED.2160p.WEB-DL.x265.10bit.HDR.DD5.1-4k电影信息
  1. Video
  2. ID : 1
  3. Format : HEVC
  4. Format/Info : High Efficiency Video Coding
  5. Format profile : Main 10@L5@High
  6. HDR format : SMPTE ST 2086, HDR10 compatible
  7. Codec ID : V_MPEGH/ISO/HEVC
  8. Duration : 1 h 45 min
  9. Bit rate : 24.2 Mb/s
  10. Width : 3 840 pixels
  11. Height : 2 064 pixels
  12. Display aspect ratio : 1.85:1
  13. Frame rate mode : Constant
  14. Frame rate : 23.976 FPS
  15. Color space : YUV
  16. Chroma subsampling : 4:2:0 (Type 2)
  17. Bit depth : 10 bits
  18. Bits/(Pixel*Frame) : 0.127
  19. Stream size : 17.9 GiB (98%)
  20. Language : English
  21. Default : Yes
  22. Forced : No
  23. Color range : Limited
  24. Color primaries : BT.2020
  25. Transfer characteristics : PQ
  26. Matrix coefficients : BT.2020 non-constant
  27. Mastering display color primaries : BT.2020
  28. Mastering display luminance : min: 0.0050 cd/m2, max: 1000 cd/m2
  29. Maximum Content Light Level : 366 cd/m2
  30. Maximum Frame-Average Light Level : 129 cd/m2

  31. Audio
  32. ID : 2
  33. Format : AC-3
  34. Format/Info : Audio Coding 3
  35. Commercial name : Dolby Digital
  36. Codec ID : A_AC3
  37. Duration : 1 h 45 min
  38. Bit rate mode : Constant
  39. Bit rate : 384 kb/s
  40. Channel(s) : 6 channels
  41. Channel layout : L R C LFE Ls Rs
  42. Sampling rate : 48.0 kHz
  43. Frame rate : 31.250 FPS (1536 SPF)
  44. Compression mode : Lossy
  45. Stream size : 291 MiB (2%)
  46. Language : English
  47. Service kind : Complete Main
  48. Default : Yes
  49. Forced : No

  50. Text #1
  51. ID : 3
  52. Format : UTF-8
  53. Codec ID : S_TEXT/UTF8
  54. Codec ID/Info : UTF-8 Plain Text
  55. Duration : 1 h 44 min
  56. Bit rate : 51 b/s
  57. Frame rate : 0.232 FPS
  58. Count of elements : 1455
  59. Stream size : 39.6 KiB (0%)
  60. Title : SDH
  61. Language : English
  62. Default : No
  63. Forced : No

  64. Text #2
  65. ID : 4
  66. Format : UTF-8
  67. Codec ID : S_TEXT/UTF8
  68. Codec ID/Info : UTF-8 Plain Text
  69. Duration : 1 h 40 min
  70. Bit rate : 49 b/s
  71. Frame rate : 0.213 FPS
  72. Count of elements : 1283
  73. Stream size : 36.6 KiB (0%)
  74. Language : English
  75. Default : No
  76. Forced : No

  77. Text #3
  78. ID : 5
  79. Format : UTF-8
  80. Codec ID : S_TEXT/UTF8
  81. Codec ID/Info : UTF-8 Plain Text
  82. Duration : 1 h 39 min
  83. Bit rate : 46 b/s
  84. Frame rate : 0.190 FPS
  85. Count of elements : 1133
  86. Stream size : 33.4 KiB (0%)
  87. Language : English
  88. Default : No
  89. Forced : No

  90. Text #4
  91. ID : 6
  92. Format : UTF-8
  93. Codec ID : S_TEXT/UTF8
  94. Codec ID/Info : UTF-8 Plain Text
  95. Duration : 1 h 44 min
  96. Bit rate : 40 b/s
  97. Frame rate : 0.181 FPS
  98. Count of elements : 1133
  99. Stream size : 30.8 KiB (0%)
  100. Language : French
  101. Default : No
  102. Forced : No

  103. Menu
  104. 00:00:00.000 : en:Chapter 01
  105. 00:06:58.626 : en:Chapter 02
  106. 00:12:50.603 : en:Chapter 03
  107. 00:18:24.270 : en:Chapter 04
  108. 00:24:53.493 : en:Chapter 05
  109. 00:31:55.290 : en:Chapter 06
  110. 00:36:46.289 : en:Chapter 07
  111. 00:43:21.726 : en:Chapter 08
  112. 00:49:49.698 : en:Chapter 09
  113. 00:57:54.557 : en:Chapter 10
  114. 01:04:27.492 : en:Chapter 11
  115. 01:11:21.072 : en:Chapter 12
  116. 01:17:56.468 : en:Chapter 13
  117. 01:26:06.458 : en:Chapter 14
  118. 01:30:56.373 : en:Chapter 15
  119. 01:39:05.153 : en:Chapter 16
复制代码

世纪婚魇(台) / 致命邀请 / 新娘 / The Bride/邀请函4k.The.Invitation.2022.UNRATED.2160p.WEB-DL.x265.10bit.HDR.DD5.1-4k电影下载

邀请函4k.The.Invitation.2022.UNRATED.2160p.WEB-DL.x265.10bit.HDR.DD5.1【HDR】【18.18 GB】
[4k世界]邀请函4k.The.Invitation.2022.UNRATED.2160p.WEB-DL.x265.10bit.HDR.DD5.1-CM.torrent (23.38 KB, 售价: 2 个K币)
回复

使用道具 举报

全部回复12

Jonssion90s 2

22-9-17 22:34

感谢楼主的分享
回复 支持 反对

使用道具 举报

seattle 22-9-17 22:35 显示全部楼层

seattle 3

22-9-17 22:35

感谢楼主的分享
回复 支持 反对

使用道具 举报

Sunland 22-9-18 11:20 显示全部楼层

Sunland 4

22-9-18 11:20

感谢楼主 下载看看
回复 支持 反对

使用道具 举报

人不是我杀的啊 5

22-9-18 13:35

太感谢你了
回复 支持 反对

使用道具 举报

nusub 22-9-19 01:53 显示全部楼层

nusub 6

22-9-19 01:53

请问字幕要另外找吗?
回复 支持 反对

使用道具 举报

youareg 22-9-20 15:34 显示全部楼层

youareg 7

22-9-20 15:34

万分感谢
回复 支持 反对

使用道具 举报

执守丶 8

22-9-21 08:37

一惊一乍的恐怖片
回复 支持 反对

使用道具 举报

haizhiyin 9

22-9-21 10:33

haohaohaohao
回复 支持 反对

使用道具 举报

zaq3500500 10

22-9-21 23:06

感谢楼主的分享
回复 支持 反对

使用道具 举报

执守丶 11

22-9-22 08:42

这个质量不是特别好
回复 支持 反对

使用道具 举报

xv6950 22-9-23 09:14 显示全部楼层

xv6950 12

22-9-23 09:14


感谢楼主的分享
回复 支持 反对

使用道具 举报

artanis1203 13

22-9-25 13:47

感谢分享
回复 支持 反对

使用道具 举报

   发表回复

您需要登录后才可以回帖 登录 | 立即注册

返回列表 本版积分规则

  • 购买会员

  • 帮助

  • 回顶部