4K世界

电视剧封面:
电视剧名: 亚特兰大 第四季4k
年  代: 2022  
国  家: 美国
类  别: 剧情 喜剧 
语  言: 英语
字  幕: 英文原版
上映日期: 2022-09-15
文件格式: mkv    
视频效果: 4K(3840x2160)    
资源大小: 2.98 GB
片  长: -
导  演: 村井浩
剧情简介: Taking place almost entirely in Europe, Season 3 of Atlanta finds “Earn” (Donald Glover), “Alfred ‘Paper Boi’ Miles” (Brian Tyree Henry), “Darius” (LaKeith Stanfield) and “Van” (Zazie Beetz) in the midst of a successful European tour, as the group navigates their new surroundings as outsiders, and struggle to adjust to the newfound success they had aspired to. Donald Glover serves as Executive Producer, along with Stephen Glover, Hiro Murai, Stefani Robinson, Paul Simms and Dianne McGunigle. Atlanta is produced by FX Productions.
亚特兰大 最终季/亚特兰大 第四季4k.Atlanta.S04E01.2160p.WEB.h265-美剧信息
  1. Video
  2. ID : 1
  3. Format : HEVC
  4. Format/Info : High Efficiency Video Coding
  5. Format profile : Main 10@L5.1@Main
  6. Codec ID : V_MPEGH/ISO/HEVC
  7. Duration : 27 min 25 s
  8. Bit rate : 15.3 Mb/s
  9. Width : 3 840 pixels
  10. Height : 2 160 pixels
  11. Display aspect ratio : 16:9
  12. Frame rate mode : Constant
  13. Frame rate : 23.976 (24000/1001) FPS
  14. Color space : YUV
  15. Chroma subsampling : 4:2:0
  16. Bit depth : 10 bits
  17. Bits/(Pixel*Frame) : 0.077
  18. Stream size : 2.93 GiB (98%)
  19. Language : English
  20. Default : Yes
  21. Forced : No

  22. Audio
  23. ID : 2
  24. Format : E-AC-3
  25. Format/Info : Enhanced AC-3
  26. Commercial name : Dolby Digital Plus
  27. Codec ID : A_EAC3
  28. Duration : 27 min 25 s
  29. Bit rate mode : Constant
  30. Bit rate : 256 kb/s
  31. Channel(s) : 6 channels
  32. Channel layout : L R C LFE Ls Rs
  33. Sampling rate : 48.0 kHz
  34. Frame rate : 31.250 FPS (1536 SPF)
  35. Compression mode : Lossy
  36. Delay relative to video : 24 ms
  37. Stream size : 50.2 MiB (2%)
  38. Language : English
  39. Service kind : Complete Main
  40. Default : Yes
  41. Forced : No

  42. Text
  43. ID : 3
  44. Format : UTF-8
  45. Codec ID : S_TEXT/UTF8
  46. Codec ID/Info : UTF-8 Plain Text
  47. Duration : 26 min 56 s
  48. Bit rate : 78 b/s
  49. Count of elements : 529
  50. Stream size : 15.5 KiB (0%)
  51. Title : English
  52. Language : English
  53. Default : No
  54. Forced : No
复制代码

亚特兰大 最终季/亚特兰大 第四季4k.Atlanta.S04E01.2160p.WEB.h265-美剧下载

亚特兰大 第四季4k.Atlanta.S04E01.2160p.WEB.h265【2.98 GB】
[4k世界]亚特兰大 第四季4k.Atlanta.S04E01.2160p.WEB.h265-TRUFFLE.torrent (30.48 KB, 售价: 1 个K币)
回复

使用道具 举报

全部回复1

408869921 2

22-9-26 03:13

可爱的楼主,字幕有没,网上也没找到
回复 支持 反对

使用道具 举报

   发表回复

您需要登录后才可以回帖 登录 | 立即注册

返回列表 本版积分规则

  • 购买会员

  • 帮助

  • 回顶部