4K世界

电视剧封面:
电视剧名: 亚特兰大 第二季4k
年  代: 2018  
国  家: 美国
类  别: 剧情 喜剧 
语  言: 英语
字  幕: 英文原版
上映日期: 2018-03-01
文件格式: mkv    
视频效果: 4K(3840x2160)    
资源大小: 34.55 GB
片  长: 30 分钟
导  演: 村井浩 / 艾米·西米茨 / 唐纳德·格洛弗
剧情简介:  FX新喜剧《亚特兰大》早早就续订了第二季,不过因为主演Donald Glover要参演《星球大战》Han Solo外传电影(饰演要角Lando Calrissian)的关系。
Atlanta Robbin’ Season/亚特兰大 第二季4k.Atlanta.S02.2160p.DSNP.WEBRip.x265.10bit.HDR.DDP5.1-4k美剧信息
  1. Video
  2. ID : 1
  3. Format : HEVC
  4. Format/Info : High Efficiency Video Coding
  5. Format profile : Main 10@L5@High
  6. Codec ID : V_MPEGH/ISO/HEVC
  7. Duration : 34 min 54 s
  8. Bit rate : 16.1 Mb/s
  9. Width : 3 840 pixels
  10. Height : 2 160 pixels
  11. Display aspect ratio : 16:9
  12. Frame rate mode : Constant
  13. Frame rate : 23.976 (24000/1001) FPS
  14. Color space : YUV
  15. Chroma subsampling : 4:2:0
  16. Bit depth : 10 bits
  17. Bits/(Pixel*Frame) : 0.081
  18. Stream size : 3.92 GiB (98%)
  19. Default : Yes
  20. Forced : No
  21. Color range : Limited
  22. Color primaries : BT.2020
  23. Transfer characteristics : PQ
  24. Matrix coefficients : BT.2020 non-constant

  25. Audio
  26. ID : 2
  27. Format : E-AC-3
  28. Format/Info : Enhanced AC-3
  29. Commercial name : Dolby Digital Plus
  30. Codec ID : A_EAC3
  31. Duration : 34 min 54 s
  32. Bit rate mode : Constant
  33. Bit rate : 256 kb/s
  34. Channel(s) : 6 channels
  35. Channel layout : L R C LFE Ls Rs
  36. Sampling rate : 48.0 kHz
  37. Frame rate : 31.250 FPS (1536 SPF)
  38. Compression mode : Lossy
  39. Stream size : 63.9 MiB (2%)
  40. Title : English
  41. Language : English
  42. Service kind : Complete Main
  43. Default : No
  44. Forced : No

  45. Text #1
  46. ID : 3
  47. Format : UTF-8
  48. Codec ID : S_TEXT/UTF8
  49. Codec ID/Info : UTF-8 Plain Text
  50. Duration : 34 min 37 s
  51. Bit rate : 42 b/s
  52. Count of elements : 394
  53. Stream size : 10.9 KiB (0%)
  54. Title : Brazilian Portuguese
  55. Language : Portuguese
  56. Default : No
  57. Forced : No

  58. Text #2
  59. ID : 4
  60. Format : UTF-8
  61. Codec ID : S_TEXT/UTF8
  62. Codec ID/Info : UTF-8 Plain Text
  63. Duration : 34 min 38 s
  64. Bit rate : 30 b/s
  65. Count of elements : 303
  66. Stream size : 7.86 KiB (0%)
  67. Title : Danish
  68. Language : Danish
  69. Default : No
  70. Forced : No

  71. Text #3
  72. ID : 5
  73. Format : UTF-8
  74. Codec ID : S_TEXT/UTF8
  75. Codec ID/Info : UTF-8 Plain Text
  76. Duration : 34 min 29 s
  77. Bit rate : 39 b/s
  78. Count of elements : 319
  79. Stream size : 9.98 KiB (0%)
  80. Title : German
  81. Language : German
  82. Default : No
  83. Forced : No

  84. Text #4
  85. ID : 6
  86. Format : UTF-8
  87. Codec ID : S_TEXT/UTF8
  88. Codec ID/Info : UTF-8 Plain Text
  89. Duration : 34 min 50 s
  90. Bit rate : 51 b/s
  91. Count of elements : 535
  92. Stream size : 13.3 KiB (0%)
  93. Title : English [SDH]
  94. Language : English
  95. Default : No
  96. Forced : No

  97. Text #5
  98. ID : 7
  99. Format : UTF-8
  100. Codec ID : S_TEXT/UTF8
  101. Codec ID/Info : UTF-8 Plain Text
  102. Duration : 34 min 46 s
  103. Bit rate : 43 b/s
  104. Count of elements : 445
  105. Stream size : 11.1 KiB (0%)
  106. Title : English
  107. Language : English
  108. Default : No
  109. Forced : No

  110. Text #6
  111. ID : 8
  112. Format : UTF-8
  113. Codec ID : S_TEXT/UTF8
  114. Codec ID/Info : UTF-8 Plain Text
  115. Duration : 34 min 35 s
  116. Bit rate : 30 b/s
  117. Count of elements : 241
  118. Stream size : 7.73 KiB (0%)
  119. Title : Finnish
  120. Language : Finnish
  121. Default : No
  122. Forced : No

  123. Text #7
  124. ID : 9
  125. Format : UTF-8
  126. Codec ID : S_TEXT/UTF8
  127. Codec ID/Info : UTF-8 Plain Text
  128. Duration : 34 min 29 s
  129. Bit rate : 40 b/s
  130. Count of elements : 335
  131. Stream size : 10.3 KiB (0%)
  132. Title : French
  133. Language : French
  134. Default : No
  135. Forced : No

  136. Text #8
  137. ID : 10
  138. Format : UTF-8
  139. Codec ID : S_TEXT/UTF8
  140. Codec ID/Info : UTF-8 Plain Text
  141. Duration : 33 min 52 s
  142. Bit rate : 35 b/s
  143. Count of elements : 262
  144. Stream size : 8.81 KiB (0%)
  145. Title : Dutch
  146. Language : Dutch
  147. Default : No
  148. Forced : No

  149. Text #9
  150. ID : 11
  151. Format : UTF-8
  152. Codec ID : S_TEXT/UTF8
  153. Codec ID/Info : UTF-8 Plain Text
  154. Duration : 34 min 32 s
  155. Bit rate : 33 b/s
  156. Count of elements : 302
  157. Stream size : 8.52 KiB (0%)
  158. Title : Norwegian
  159. Language : Norwegian
  160. Default : No
  161. Forced : No

  162. Text #10
  163. ID : 12
  164. Format : UTF-8
  165. Codec ID : S_TEXT/UTF8
  166. Codec ID/Info : UTF-8 Plain Text
  167. Duration : 34 min 35 s
  168. Bit rate : 38 b/s
  169. Count of elements : 380
  170. Stream size : 9.75 KiB (0%)
  171. Title : Spanish
  172. Language : Spanish
  173. Default : No
  174. Forced : No

  175. Text #11
  176. ID : 13
  177. Format : UTF-8
  178. Codec ID : S_TEXT/UTF8
  179. Codec ID/Info : UTF-8 Plain Text
  180. Duration : 34 min 38 s
  181. Bit rate : 34 b/s
  182. Count of elements : 303
  183. Stream size : 8.79 KiB (0%)
  184. Title : Swedish
  185. Language : Swedish
  186. Default : No
  187. Forced : No
复制代码

Atlanta Robbin’ Season/亚特兰大 第二季4k.Atlanta.S02.2160p.DSNP.WEBRip.x265.10bit.HDR.DDP5.1-4k美剧下载

亚特兰大 第二季4k.Atlanta.S02.2160p.DSNP.WEBRip.x265.10bit.HDR.DDP5.1【34.55 GB】
[4k世界]亚特兰大 第二季4k.Atlanta.S02.2160p.DSNP.WEBRip.x265.10bit.HDR.DDP5.1-MZABI.torrent (87.91 KB)
回复

使用道具 举报

全部回复1

ZJZ010 22-9-21 09:01 显示全部楼层

ZJZ010 2

22-9-21 09:01

好剧下来看看谢谢分享
回复 支持 反对

使用道具 举报

   发表回复

您需要登录后才可以回帖 登录 | 立即注册

返回列表 本版积分规则

  • 购买会员

  • 帮助

  • 回顶部