4K世界

电视剧封面:
电视剧名: 看见 第三季4k
年  代: 2022  
国  家: 美国
类  别: 动作 科幻 剧情 
语  言: 英语
字  幕: 英文原版
上映日期: 2022-08-26
文件格式: mkv    
视频效果: 4K(3840x2160)    
资源大小: 10.52 10.52 GB
片  长: -
导  演: 安德斯·恩格斯特伦
剧情简介:  After Baba Voss (Jason Momoa) defeated his nemesis brother Edo and retreated into the forest, an explosive new threat emerges that no one is safe from. Will the greatest warrior of his time have what it takes to protect those that mean the most to him? The final chapter of SEE begins August 26 on Apple TV+
  SEE is set in a brutal and primitive future, hundreds of years after humankind has lost the ability to see. In season three, almost a year has passed since Baba Voss defeated his nemesis brother Edo and bid farewell to his family to live remotely in the forest. But when a Trivantian scientist develops a new and devastating form of sighted weaponry that threatens the future of humanity, Baba returns to Paya in order to protect his tribe once more.
  Starring alongside Momoa in the third season of SEE are returning ensemble cast members Sylvia Hoeks, Hera Hilmar, Christian Camargo, Archie Madekwe, Nesta Cooper, Tom Mison, Olivia Cheng, Eden Epstein, Michael Raymond-James, and David Hewlett.
  SEE is executive produced by Steven Knight, Francis Lawrence, Peter Chernin, Jenno Topping, Jim Rowe, Jennifer Yale, Anders Engström and Jonathan Tropper, who also serves as showrunner. The series is produced by Chernin Entertainment and Endeavor Content.
看见 第三季4k.See.S03E01.2160p.ATVP.WEB-DL.x265.10bit.HDR10Plus.DDP5.1.Atmos-4k美剧信息
  1. Video
  2. ID : 1
  3. Format : HEVC
  4. Format/Info : High Efficiency Video Coding
  5. Format profile : Main 10@L5@High
  6. HDR format : SMPTE ST 2094 App 4, Version 1, HDR10+ Profile B compatible
  7. Codec ID : V_MPEGH/ISO/HEVC
  8. Duration : 1 h 0 min
  9. Bit rate : 24.2 Mb/s
  10. Width : 3 840 pixels
  11. Height : 1 820 pixels
  12. Display aspect ratio : 2.110
  13. Frame rate mode : Constant
  14. Frame rate : 23.976 (23976/1000) FPS
  15. Color space : YUV
  16. Chroma subsampling : 4:2:0 (Type 2)
  17. Bit depth : 10 bits
  18. Bits/(Pixel*Frame) : 0.144
  19. Stream size : 10.2 GiB (97%)
  20. Language : English
  21. Default : Yes
  22. Forced : No
  23. Color range : Limited
  24. Color primaries : BT.2020
  25. Transfer characteristics : PQ
  26. Matrix coefficients : BT.2020 non-constant
  27. Mastering display color primaries : Display P3
  28. Mastering display luminance : min: 0.0050 cd/m2, max: 1000 cd/m2
  29. Maximum Content Light Level : 794 cd/m2
  30. Maximum Frame-Average Light Level : 219 cd/m2

  31. Audio
  32. ID : 2
  33. Format : E-AC-3 JOC
  34. Format/Info : Enhanced AC-3 with Joint Object Coding
  35. Commercial name : Dolby Digital Plus with Dolby Atmos
  36. Codec ID : A_EAC3
  37. Duration : 1 h 0 min
  38. Bit rate mode : Constant
  39. Bit rate : 768 kb/s
  40. Channel(s) : 6 channels
  41. Channel layout : L R C LFE Ls Rs
  42. Sampling rate : 48.0 kHz
  43. Frame rate : 31.250 FPS (1536 SPF)
  44. Compression mode : Lossy
  45. Stream size : 331 MiB (3%)
  46. Language : English
  47. Service kind : Complete Main
  48. Default : Yes
  49. Forced : No
  50. Complexity index : 16
  51. Number of dynamic objects : 15
  52. Bed channel count : 1 channel
  53. Bed channel configuration : LFE

  54. Text #1
  55. ID : 3
  56. Format : UTF-8
  57. Codec ID : S_TEXT/UTF8
  58. Codec ID/Info : UTF-8 Plain Text
  59. Duration : 58 min 39 s
  60. Bit rate : 54 b/s
  61. Frame rate : 0.200 FPS
  62. Count of elements : 704
  63. Stream size : 23.5 KiB (0%)
  64. Language : English
  65. Default : No
  66. Forced : No

  67. Text #2
  68. ID : 4
  69. Format : UTF-8
  70. Codec ID : S_TEXT/UTF8
  71. Codec ID/Info : UTF-8 Plain Text
  72. Duration : 58 min 51 s
  73. Bit rate : 63 b/s
  74. Frame rate : 0.238 FPS
  75. Count of elements : 841
  76. Stream size : 27.4 KiB (0%)
  77. Title : English (SDH)
  78. Language : English
  79. Default : No
  80. Forced : No

  81. Text #3
  82. ID : 5
  83. Format : UTF-8
  84. Codec ID : S_TEXT/UTF8
  85. Codec ID/Info : UTF-8 Plain Text
  86. Duration : 1 h 0 min
  87. Bit rate : 71 b/s
  88. Frame rate : 0.196 FPS
  89. Count of elements : 706
  90. Stream size : 31.5 KiB (0%)
  91. Language : Arabic
  92. Default : No
  93. Forced : No

  94. Text #4
  95. ID : 6
  96. Format : UTF-8
  97. Codec ID : S_TEXT/UTF8
  98. Codec ID/Info : UTF-8 Plain Text
  99. Duration : 1 h 0 min
  100. Bit rate : 79 b/s
  101. Frame rate : 0.187 FPS
  102. Count of elements : 675
  103. Stream size : 35.1 KiB (0%)
  104. Language : Bulgarian
  105. Default : No
  106. Forced : No

  107. Text #5
  108. ID : 7
  109. Format : UTF-8
  110. Codec ID : S_TEXT/UTF8
  111. Codec ID/Info : UTF-8 Plain Text
  112. Duration : 1 h 0 min
  113. Bit rate : 49 b/s
  114. Frame rate : 0.196 FPS
  115. Count of elements : 708
  116. Stream size : 21.8 KiB (0%)
  117. Language : Chinese
  118. Default : No
  119. Forced : No

  120. Text #6
  121. ID : 8
  122. Format : UTF-8
  123. Codec ID : S_TEXT/UTF8
  124. Codec ID/Info : UTF-8 Plain Text
  125. Duration : 1 h 0 min
  126. Bit rate : 48 b/s
  127. Frame rate : 0.196 FPS
  128. Count of elements : 707
  129. Stream size : 21.3 KiB (0%)
  130. Language : Chinese
  131. Default : No
  132. Forced : No
复制代码

看见 第三季4k.See.S03E01.2160p.ATVP.WEB-DL.x265.10bit.HDR10Plus.DDP5.1.Atmos-4k美剧下载

看见 第三季4k.See.S03E01.2160p.ATVP.WEB-DL.x265.10bit.HDR10Plus.DDP5.1.Atmos-简繁中字【10.52 GB】
[4k世界]看见 第三季4k.See.S03E01.2160p.ATVP.WEB-DL.x265.10bit.HDR10Plus.DDP5.1.Atmos-CasStudio.torrent (13.84 KB)
回复

使用道具 举报

全部回复6

zgxman 22-9-22 09:28 显示全部楼层

zgxman 2

22-9-22 09:28

感谢分享
回复 支持 反对

使用道具 举报

豆豆杀手 3

22-9-22 12:25

太谢谢楼主了,希望楼主完整它,谢谢。
回复 支持 反对

使用道具 举报

woaiwojia888 4

22-9-22 18:12

这是几集
回复 支持 反对

使用道具 举报

林国钧 5

22-9-24 12:50

终于出第三季了
回复 支持 反对

使用道具 举报

199031 22-10-1 15:24 显示全部楼层

199031 6

22-10-1 15:24

等着第六集更新
回复 支持 反对

使用道具 举报

dukeyli 22-10-2 11:51 显示全部楼层

dukeyli 7

22-10-2 11:51

第五集和第六集什么时候更新啊?望眼欲穿啊。
回复 支持 反对

使用道具 举报

   发表回复

您需要登录后才可以回帖 登录 | 立即注册

返回列表 本版积分规则

  • 购买会员

  • 帮助

  • 回顶部