4K世界

电影封面:
片  名: 为耶稣鸣喇叭,拯救你的灵魂4K
导  演: 阿达玛·埃博
电影分类: 喜剧   
国  家: 美国 
年  代: 2022年
豆瓣评分: 0 分
分 辨 率: 4K(3840x2160)
资源特性:  
画质标准: HDR 
音质编码: Dolby Digital Plus Audio   
电影声道: 5.1声道    
帧数/FPS: 23.976 帧
电影语言: 原版字幕 
中文字幕: -
剧情简介: 南方浸信会大教堂的第一夫人Trinitie(雷吉娜·霍尔 饰演),她与她的丈夫牧师Lee(斯特林·K·布朗 饰演)一起曾为成千上万的会众服务。一次丑闻事件的发生,迫使他们的教会暂时关闭,Trinitie和Lee必须重新开放他们的教会并重拾他们的会众对他们的信心......
为耶稣鸣喇叭,拯救你的灵魂4K.Honk.for.Jesus.Save.Your.Soul.2022.2160p.WEB-DL.x265.10bit.HDR.DD5.1-4K电影信息
  1. Video
  2. ID : 1
  3. Format : HEVC
  4. Format/Info : High Efficiency Video Coding
  5. Format profile : Main 10@L5@High
  6. HDR format : SMPTE ST 2086, HDR10 compatible
  7. Codec ID : V_MPEGH/ISO/HEVC
  8. Duration : 1 h 43 min
  9. Bit rate : 23.5 Mb/s
  10. Width : 3 840 pixels
  11. Height : 2 160 pixels
  12. Display aspect ratio : 16:9
  13. Frame rate mode : Constant
  14. Frame rate : 23.976 FPS
  15. Color space : YUV
  16. Chroma subsampling : 4:2:0 (Type 2)
  17. Bit depth : 10 bits
  18. Bits/(Pixel*Frame) : 0.118
  19. Stream size : 17.0 GiB (98%)
  20. Language : English
  21. Default : Yes
  22. Forced : No
  23. Color range : Limited
  24. Color primaries : BT.2020
  25. Transfer characteristics : PQ
  26. Matrix coefficients : BT.2020 non-constant
  27. Mastering display color primaries : Display P3
  28. Mastering display luminance : min: 0.0050 cd/m2, max: 1000 cd/m2
  29. Maximum Content Light Level : 928 cd/m2
  30. Maximum Frame-Average Light Level : 93 cd/m2

  31. Audio
  32. ID : 2
  33. Format : AC-3
  34. Format/Info : Audio Coding 3
  35. Commercial name : Dolby Digital
  36. Codec ID : A_AC3
  37. Duration : 1 h 43 min
  38. Bit rate mode : Constant
  39. Bit rate : 384 kb/s
  40. Channel(s) : 6 channels
  41. Channel layout : L R C LFE Ls Rs
  42. Sampling rate : 48.0 kHz
  43. Frame rate : 31.250 FPS (1536 SPF)
  44. Compression mode : Lossy
  45. Stream size : 285 MiB (2%)
  46. Language : English
  47. Service kind : Complete Main
  48. Default : Yes
  49. Forced : No

  50. Text
  51. ID : 3
  52. Format : UTF-8
  53. Codec ID : S_TEXT/UTF8
  54. Codec ID/Info : UTF-8 Plain Text
  55. Duration : 1 h 43 min
  56. Bit rate : 86 b/s
  57. Frame rate : 0.346 FPS
  58. Count of elements : 2139
  59. Stream size : 65.5 KiB (0%)
  60. Language : English
  61. Default : Yes
  62. Forced : No
复制代码

为耶稣鸣喇叭,拯救你的灵魂4K.Honk.for.Jesus.Save.Your.Soul.2022.2160p.WEB-DL.x265.10bit.HDR.DD5.1-4K电影下载

为耶稣鸣喇叭,拯救你的灵魂4K.Honk.for.Jesus.Save.Your.Soul.2022.2160p.WEB-DL.x265.10bit.HDR.DD5.1【HDR  17.29 GB】
[4K世界]为耶稣鸣喇叭,拯救你的灵魂4K.Honk.for.Jesus.Save.Your.Soul.2022.2160p.WEB-DL.x265.10bit.HDR.DD5.1-NOGRP.torrent (22.29 KB)
回复

使用道具 举报

全部回复2

seraphimlucifer 2

22-9-21 17:03

政治正确?
回复 支持 反对

使用道具 举报

artanis1203 3

22-9-25 13:43

感谢分享
回复 支持 反对

使用道具 举报

   发表回复

您需要登录后才可以回帖 登录 | 立即注册

返回列表 本版积分规则

  • 购买会员

  • 帮助

  • 回顶部