4K世界

电视剧封面:
电视剧名: 超/自然4k
年  代: 2022  
国  家: 美国
类  别: 纪录片 
语  言: 英语
字  幕: -
上映日期: 2022-09-21
文件格式: mkv    
视频效果: 4K(3840x2160)    
资源大小: 30.39 GB
片  长: -
导  演: 本尼迪克特·康伯巴奇
剧情简介:  If you think you know nature, think again. Experience a realm beyond human perception in #SuperNaturalSeries, from executive producer James Cameron and narrated by Benedict Cumberbatch. The all-new series is streaming September 21 only on Disney+
超级/自然/超/自然4k.Super.Natural.S01.2160p.DSNP.WEB-DL.x265.10bit.HDR.DDP5.1-4k纪录片信息
  1. Video
  2. ID : 1
  3. Format : HEVC
  4. Format/Info : High Efficiency Video Coding
  5. Format profile : Main 10@L5@High
  6. HDR format : SMPTE ST 2086, HDR10 compatible
  7. Codec ID : V_MPEGH/ISO/HEVC
  8. Duration : 46 min 49 s
  9. Bit rate : 14.3 Mb/s
  10. Width : 3 840 pixels
  11. Height : 2 160 pixels
  12. Display aspect ratio : 16:9
  13. Frame rate mode : Constant
  14. Frame rate : 23.976 (24000/1001) FPS
  15. Color space : YUV
  16. Chroma subsampling : 4:2:0
  17. Bit depth : 10 bits
  18. Bits/(Pixel*Frame) : 0.072
  19. Stream size : 4.66 GiB (98%)
  20. Language : English
  21. Default : Yes
  22. Forced : No
  23. Color range : Limited
  24. Color primaries : BT.2020
  25. Transfer characteristics : PQ
  26. Matrix coefficients : BT.2020 non-constant
  27. Mastering display color primaries : Display P3
  28. Mastering display luminance : min: 0.0010 cd/m2, max: 1000 cd/m2

  29. Audio
  30. ID : 2
  31. Format : E-AC-3
  32. Format/Info : Enhanced AC-3
  33. Commercial name : Dolby Digital Plus
  34. Codec ID : A_EAC3
  35. Duration : 46 min 49 s
  36. Bit rate mode : Constant
  37. Bit rate : 256 kb/s
  38. Channel(s) : 6 channels
  39. Channel layout : L R C LFE Ls Rs
  40. Sampling rate : 48.0 kHz
  41. Frame rate : 31.250 FPS (1536 SPF)
  42. Compression mode : Lossy
  43. Stream size : 85.7 MiB (2%)
  44. Language : English
  45. Service kind : Complete Main
  46. Default : Yes
  47. Forced : No

  48. Text #1
  49. ID : 3
  50. Format : UTF-8
  51. Codec ID : S_TEXT/UTF8
  52. Codec ID/Info : UTF-8 Plain Text
  53. Duration : 46 min 39 s
  54. Bit rate : 68 b/s
  55. Frame rate : 0.201 FPS
  56. Count of elements : 564
  57. Stream size : 23.4 KiB (0%)
  58. Title : English (SDH)
  59. Language : English
  60. Default : No
  61. Forced : No

  62. Text #2
  63. ID : 4
  64. Format : UTF-8
  65. Codec ID : S_TEXT/UTF8
  66. Codec ID/Info : UTF-8 Plain Text
  67. Duration : 46 min 35 s
  68. Bit rate : 59 b/s
  69. Frame rate : 0.137 FPS
  70. Count of elements : 383
  71. Stream size : 20.3 KiB (0%)
  72. Title : Čeština
  73. Language : Czech
  74. Default : No
  75. Forced : No

  76. Text #3
  77. ID : 5
  78. Format : UTF-8
  79. Codec ID : S_TEXT/UTF8
  80. Codec ID/Info : UTF-8 Plain Text
  81. Duration : 46 min 35 s
  82. Bit rate : 57 b/s
  83. Frame rate : 0.138 FPS
  84. Count of elements : 385
  85. Stream size : 19.6 KiB (0%)
  86. Title : Dansk
  87. Language : Danish
  88. Default : No
  89. Forced : No

  90. Text #4
  91. ID : 6
  92. Format : UTF-8
  93. Codec ID : S_TEXT/UTF8
  94. Codec ID/Info : UTF-8 Plain Text
  95. Duration : 46 min 35 s
  96. Bit rate : 72 b/s
  97. Frame rate : 0.153 FPS
  98. Count of elements : 427
  99. Stream size : 24.8 KiB (0%)
  100. Title : Deutsch
  101. Language : German
  102. Default : No
  103. Forced : No

  104. Text #5
  105. ID : 7
  106. Format : UTF-8
  107. Codec ID : S_TEXT/UTF8
  108. Codec ID/Info : UTF-8 Plain Text
  109. Duration : 46 min 35 s
  110. Bit rate : 102 b/s
  111. Frame rate : 0.138 FPS
  112. Count of elements : 386
  113. Stream size : 35.0 KiB (0%)
  114. Title : Greek
  115. Language : Greek
  116. Default : No
  117. Forced : No

  118. Text #6
  119. ID : 8
  120. Format : UTF-8
  121. Codec ID : S_TEXT/UTF8
  122. Codec ID/Info : UTF-8 Plain Text
  123. Duration : 46 min 35 s
  124. Bit rate : 62 b/s
  125. Frame rate : 0.145 FPS
  126. Count of elements : 405
  127. Stream size : 21.4 KiB (0%)
  128. Title : Español (Latinoamericano)
  129. Language : Spanish
  130. Default : No
  131. Forced : No

  132. Text #7
  133. ID : 9
  134. Format : UTF-8
  135. Codec ID : S_TEXT/UTF8
  136. Codec ID/Info : UTF-8 Plain Text
  137. Duration : 46 min 35 s
  138. Bit rate : 62 b/s
  139. Frame rate : 0.138 FPS
  140. Count of elements : 385
  141. Stream size : 21.3 KiB (0%)
  142. Title : Español
  143. Language : Spanish
  144. Default : No
  145. Forced : No

  146. Text #8
  147. ID : 10
  148. Format : UTF-8
  149. Codec ID : S_TEXT/UTF8
  150. Codec ID/Info : UTF-8 Plain Text
  151. Duration : 46 min 35 s
  152. Bit rate : 60 b/s
  153. Frame rate : 0.137 FPS
  154. Count of elements : 384
  155. Stream size : 20.6 KiB (0%)
  156. Title : Suomi
  157. Language : Finnish
  158. Default : No
  159. Forced : No

  160. Text #9
  161. ID : 11
  162. Format : UTF-8
  163. Codec ID : S_TEXT/UTF8
  164. Codec ID/Info : UTF-8 Plain Text
  165. Duration : 46 min 35 s
  166. Bit rate : 66 b/s
  167. Frame rate : 0.147 FPS
  168. Count of elements : 411
  169. Stream size : 22.7 KiB (0%)
  170. Title : Français
  171. Language : French
  172. Default : No
  173. Forced : No

  174. Text #10
  175. ID : 12
  176. Format : UTF-8
  177. Codec ID : S_TEXT/UTF8
  178. Codec ID/Info : UTF-8 Plain Text
  179. Duration : 46 min 35 s
  180. Bit rate : 63 b/s
  181. Frame rate : 0.132 FPS
  182. Count of elements : 369
  183. Stream size : 21.7 KiB (0%)
  184. Title : Magyar
  185. Language : Hungarian
  186. Default : No
  187. Forced : No

  188. Text #11
  189. ID : 13
  190. Format : UTF-8
  191. Codec ID : S_TEXT/UTF8
  192. Codec ID/Info : UTF-8 Plain Text
  193. Duration : 46 min 35 s
  194. Bit rate : 61 b/s
  195. Frame rate : 0.138 FPS
  196. Count of elements : 385
  197. Stream size : 20.9 KiB (0%)
  198. Title : Italiano
  199. Language : Italian
  200. Default : No
  201. Forced : No

  202. Text #12
  203. ID : 14
  204. Format : UTF-8
  205. Codec ID : S_TEXT/UTF8
  206. Codec ID/Info : UTF-8 Plain Text
  207. Duration : 46 min 35 s
  208. Bit rate : 54 b/s
  209. Frame rate : 0.143 FPS
  210. Count of elements : 400
  211. Stream size : 18.6 KiB (0%)
  212. Title : Japanese
  213. Language : Japanese
  214. Default : No
  215. Forced : No

  216. Text #13
  217. ID : 15
  218. Format : UTF-8
  219. Codec ID : S_TEXT/UTF8
  220. Codec ID/Info : UTF-8 Plain Text
  221. Duration : 46 min 35 s
  222. Bit rate : 58 b/s
  223. Frame rate : 0.152 FPS
  224. Count of elements : 424
  225. Stream size : 19.9 KiB (0%)
  226. Title : Korean
  227. Language : Korean
  228. Default : No
  229. Forced : No

  230. Text #14
  231. ID : 16
  232. Format : UTF-8
  233. Codec ID : S_TEXT/UTF8
  234. Codec ID/Info : UTF-8 Plain Text
  235. Duration : 46 min 35 s
  236. Bit rate : 49 b/s
  237. Frame rate : 0.133 FPS
  238. Count of elements : 373
  239. Stream size : 16.8 KiB (0%)
  240. Title : Nederlands
  241. Language : Dutch
  242. Default : No
  243. Forced : No

  244. Text #15
  245. ID : 17
  246. Format : UTF-8
  247. Codec ID : S_TEXT/UTF8
  248. Codec ID/Info : UTF-8 Plain Text
  249. Duration : 46 min 35 s
  250. Bit rate : 56 b/s
  251. Frame rate : 0.138 FPS
  252. Count of elements : 385
  253. Stream size : 19.2 KiB (0%)
  254. Title : Norsk
  255. Language : Norwegian
  256. Default : No
  257. Forced : No

  258. Text #16
  259. ID : 18
  260. Format : UTF-8
  261. Codec ID : S_TEXT/UTF8
  262. Codec ID/Info : UTF-8 Plain Text
  263. Duration : 46 min 35 s
  264. Bit rate : 56 b/s
  265. Frame rate : 0.138 FPS
  266. Count of elements : 386
  267. Stream size : 19.2 KiB (0%)
  268. Title : Polski
  269. Language : Polish
  270. Default : No
  271. Forced : No

  272. Text #17
  273. ID : 19
  274. Format : UTF-8
  275. Codec ID : S_TEXT/UTF8
  276. Codec ID/Info : UTF-8 Plain Text
  277. Duration : 46 min 35 s
  278. Bit rate : 60 b/s
  279. Frame rate : 0.141 FPS
  280. Count of elements : 393
  281. Stream size : 20.8 KiB (0%)
  282. Title : Português
  283. Language : Portuguese
  284. Default : No
  285. Forced : No

  286. Text #18
  287. ID : 20
  288. Format : UTF-8
  289. Codec ID : S_TEXT/UTF8
  290. Codec ID/Info : UTF-8 Plain Text
  291. Duration : 46 min 35 s
  292. Bit rate : 60 b/s
  293. Frame rate : 0.140 FPS
  294. Count of elements : 390
  295. Stream size : 20.7 KiB (0%)
  296. Title : Português (Brasil)
  297. Language : Portuguese
  298. Default : No
  299. Forced : No

  300. Text #19
  301. ID : 21
  302. Format : UTF-8
  303. Codec ID : S_TEXT/UTF8
  304. Codec ID/Info : UTF-8 Plain Text
  305. Duration : 46 min 35 s
  306. Bit rate : 64 b/s
  307. Frame rate : 0.137 FPS
  308. Count of elements : 383
  309. Stream size : 21.8 KiB (0%)
  310. Title : Romană
  311. Language : Romanian
  312. Default : No
  313. Forced : No

  314. Text #20
  315. ID : 22
  316. Format : UTF-8
  317. Codec ID : S_TEXT/UTF8
  318. Codec ID/Info : UTF-8 Plain Text
  319. Duration : 46 min 35 s
  320. Bit rate : 60 b/s
  321. Frame rate : 0.138 FPS
  322. Count of elements : 386
  323. Stream size : 20.6 KiB (0%)
  324. Title : Slovenčina
  325. Language : Slovak
  326. Default : No
  327. Forced : No

  328. Text #21
  329. ID : 23
  330. Format : UTF-8
  331. Codec ID : S_TEXT/UTF8
  332. Codec ID/Info : UTF-8 Plain Text
  333. Duration : 46 min 35 s
  334. Bit rate : 60 b/s
  335. Frame rate : 0.138 FPS
  336. Count of elements : 385
  337. Stream size : 20.8 KiB (0%)
  338. Title : Svenska
  339. Language : Swedish
  340. Default : No
  341. Forced : No

  342. Text #22
  343. ID : 24
  344. Format : UTF-8
  345. Codec ID : S_TEXT/UTF8
  346. Codec ID/Info : UTF-8 Plain Text
  347. Duration : 46 min 35 s
  348. Bit rate : 58 b/s
  349. Frame rate : 0.138 FPS
  350. Count of elements : 386
  351. Stream size : 20.1 KiB (0%)
  352. Title : Türkçe
  353. Language : Turkish
  354. Default : No
  355. Forced : No

  356. Text #23
  357. ID : 25
  358. Format : UTF-8
  359. Codec ID : S_TEXT/UTF8
  360. Codec ID/Info : UTF-8 Plain Text
  361. Duration : 46 min 35 s
  362. Bit rate : 41 b/s
  363. Frame rate : 0.138 FPS
  364. Count of elements : 386
  365. Stream size : 14.2 KiB (0%)
  366. Title : Chinese (Hong Kong)
  367. Language : Chinese
  368. Default : No
  369. Forced : No

  370. Text #24
  371. ID : 26
  372. Format : UTF-8
  373. Codec ID : S_TEXT/UTF8
  374. Codec ID/Info : UTF-8 Plain Text
  375. Duration : 46 min 35 s
  376. Bit rate : 41 b/s
  377. Frame rate : 0.138 FPS
  378. Count of elements : 386
  379. Stream size : 14.0 KiB (0%)
  380. Title : Chinese (Traditional)
  381. Language : Chinese
  382. Default : No
  383. Forced : No

  384. Text #25
  385. ID : 27
  386. Format : UTF-8
  387. Codec ID : S_TEXT/UTF8
  388. Codec ID/Info : UTF-8 Plain Text
  389. Duration : 46 min 35 s
  390. Bit rate : 41 b/s
  391. Frame rate : 0.138 FPS
  392. Count of elements : 386
  393. Stream size : 14.3 KiB (0%)
  394. Title : Chinese (Simplified)
  395. Language : Chinese
  396. Default : No
  397. Forced : No
复制代码

超级/自然/超/自然4k.Super.Natural.S01.2160p.DSNP.WEB-DL.x265.10bit.HDR.DDP5.1-4k纪录片下载

自然4k.Super.Natural.S01.2160p.DSNP.WEB-DL.x265.10bit.HDR.DDP5.1-简繁中字【26.44 GB】
[4k世界]超_自然4k.Super.Natural.S01.2160p.DSNP.WEB-DL.x265.10bit.HDR.DDP5.1-KOGi.torrent (34.09 KB, 售价: 1 个K币)
回复

使用道具 举报

全部回复12

龙舞 22-9-22 13:47 显示全部楼层

龙舞 2

22-9-22 13:47

非常喜欢纪录片,最好是杜比视界的。
回复 支持 反对

使用道具 举报

r31325 22-9-22 19:18 显示全部楼层

r31325 3

22-9-22 19:18

神奇的超自然
回复 支持 反对

使用道具 举报

mengxl 22-9-22 22:08 显示全部楼层

mengxl 4

22-9-22 22:08

纪录片,喜欢
回复 支持 反对

使用道具 举报

豆豆杀手 5

22-9-23 11:03

楼主威武,谢谢楼主的分享,非常喜欢。
回复 支持 反对

使用道具 举报

burningbla 6

22-9-23 21:35

怎么购买不了附件
回复 支持 反对

使用道具 举报

ritila 22-9-23 21:43 显示全部楼层

ritila 7

22-9-23 21:43

购买不了附件了
回复 支持 反对

使用道具 举报

andywonglau 8

22-9-23 22:58

非常喜欢,一直想看
回复 支持 反对

使用道具 举报

zhengba 22-9-25 20:22 显示全部楼层

zhengba 9

22-9-25 20:22

谢谢楼主。
回复 支持 反对

使用道具 举报

zgxman 22-9-27 10:45 显示全部楼层

zgxman 10

22-9-27 10:45

很好的记录片,感谢分享
回复 支持 反对

使用道具 举报

zhangchunlei 11

22-9-27 21:34

这视频是超/自然还是超凡动物奇观
回复 支持 反对

使用道具 举报

akmisty 22-9-28 15:35 显示全部楼层

akmisty 12

22-9-28 15:35

无敌我的天
回复 支持 反对

使用道具 举报

TC002 22-9-28 19:27 显示全部楼层

TC002 13

22-9-28 19:27

超/自然4k
回复 支持 反对

使用道具 举报

   发表回复

您需要登录后才可以回帖 登录 | 立即注册

返回列表 本版积分规则

  • 购买会员

  • 帮助

  • 回顶部