4K世界

电视剧封面:
电视剧名: 卡戴珊家族 第二季4k
年  代: 2022  
国  家: 美国
类  别: 真人秀 
语  言: 英语
字  幕: 英文原版
上映日期: 2022-09-2
文件格式: mkv    
视频效果: 4K(3840x2160)    
资源大小: 5.27 GB
片  长: -
导  演: 金·卡戴珊 / 葛妮·卡戴珊 / 科勒·卡戴珊 / 克莉丝·詹纳 / 肯多尔·詹娜 / 皮特·戴维森
剧情简介: 《卡戴珊家族》第二季继续追踪美国名媛的秘密生活!
卡戴珊家族 第二季4k.The.Kardashians.S02E01.2160p.WEB.H265-真人秀信息

  1. Video
  2. ID : 1
  3. Format : HEVC
  4. Format/Info : High Efficiency Video Coding
  5. Format profile : Main 10@L5.1@Main
  6. Codec ID : V_MPEGH/ISO/HEVC
  7. Duration : 48 min 53 s
  8. Bit rate : 14.9 Mb/s
  9. Width : 3 840 pixels
  10. Height : 2 160 pixels
  11. Display aspect ratio : 16:9
  12. Frame rate mode : Constant
  13. Frame rate : 23.976 (24000/1001) FPS
  14. Color space : YUV
  15. Chroma subsampling : 4:2:0
  16. Bit depth : 10 bits
  17. Bits/(Pixel*Frame) : 0.075
  18. Stream size : 5.08 GiB (96%)
  19. Default : Yes
  20. Forced : No

  21. Audio
  22. ID : 2
  23. Format : E-AC-3
  24. Format/Info : Enhanced AC-3
  25. Commercial name : Dolby Digital Plus
  26. Codec ID : A_EAC3
  27. Duration : 48 min 53 s
  28. Bit rate mode : Constant
  29. Bit rate : 256 kb/s
  30. Channel(s) : 6 channels
  31. Channel layout : L R C LFE Ls Rs
  32. Sampling rate : 48.0 kHz
  33. Frame rate : 31.250 FPS (1536 SPF)
  34. Compression mode : Lossy
  35. Stream size : 89.5 MiB (2%)
  36. Language : English
  37. Service kind : Complete Main
  38. Default : Yes
  39. Forced : No

  40. Text #1
  41. ID : 3
  42. Format : UTF-8
  43. Codec ID : S_TEXT/UTF8
  44. Codec ID/Info : UTF-8 Plain Text
  45. Title : English [SDH]
  46. Language : English
  47. Default : No
  48. Forced : No

  49. Text #2
  50. ID : 4
  51. Format : UTF-8
  52. Codec ID : S_TEXT/UTF8
  53. Codec ID/Info : UTF-8 Plain Text
  54. Title : Spanish [SDH]
  55. Language : Spanish
  56. Default : No
  57. Forced : No
复制代码
B】
卡戴珊家族 第二季4k.The.Kardashians.S02E01.2160p.WEB.H265-真人秀下载

卡戴珊家族 第二季4k.The.Kardashians.S02E01.2160p.WEB.H265【5.27 G】
[4k世界]卡戴珊家族 第二季4k.The.Kardashians.S02E01.2160p.WEB.H265-SPAMnEGGS.torrent (13.92 KB)
回复

使用道具 举报

   发表回复

您需要登录后才可以回帖 登录 | 立即注册

返回列表 本版积分规则

  • 购买会员

  • 帮助

  • 回顶部