4K世界

电视剧封面:
电视剧名: 傲骨之战 第六季4k
年  代: 2022  
国  家: 美国
类  别: 犯罪 剧情 
语  言: 英语
字  幕: 英文原版
上映日期: 2022-09-08
文件格式: mkv    
视频效果: 4K(3840x2160)    
资源大小: 4.52 GB
片  长: -
导  演: 尼尔森·麦科米克
剧情简介:  在第六季中,戴安与一种似曾相识的不安感作斗争,她感觉自己快要疯掉了,从Roe诉Wade案到投票权,再到冷战局面,一切都在卷土重来。与此同时,律所的律师们想知道,他们所见证的那些暴力事件,是否预示着一场内战即将到来。
傲骨之战最终季 / 傲战法庭/傲骨之战 第六季4k.The.Good.Fight.S06E01.HDR.2160p.WEB.H265-4k美剧信息
  1. Video
  2. ID : 1
  3. Format : HEVC
  4. Format/Info : High Efficiency Video Coding
  5. Format profile : Main 10@L5@Main
  6. HDR format : SMPTE ST 2094 App 4, Version 1, HDR10+ Profile B compatible
  7. Codec ID : V_MPEGH/ISO/HEVC
  8. Duration : 46 min 58 s
  9. Bit rate : 13.3 Mb/s
  10. Width : 3 840 pixels
  11. Height : 2 160 pixels
  12. Display aspect ratio : 16:9
  13. Frame rate mode : Constant
  14. Frame rate : 23.976 (24000/1001) FPS
  15. Color space : YUV
  16. Chroma subsampling : 4:2:0 (Type 2)
  17. Bit depth : 10 bits
  18. Bits/(Pixel*Frame) : 0.067
  19. Stream size : 4.37 GiB (97%)
  20. Default : Yes
  21. Forced : No
  22. Color range : Limited
  23. Color primaries : BT.2020
  24. Transfer characteristics : PQ
  25. Matrix coefficients : BT.2020 non-constant
  26. Mastering display color primaries : Display P3
  27. Mastering display luminance : min: 0.0001 cd/m2, max: 1000 cd/m2

  28. Audio
  29. ID : 2
  30. Format : E-AC-3
  31. Format/Info : Enhanced AC-3
  32. Commercial name : Dolby Digital Plus
  33. Codec ID : A_EAC3
  34. Duration : 46 min 58 s
  35. Bit rate mode : Constant
  36. Bit rate : 192 kb/s
  37. Channel(s) : 6 channels
  38. Channel layout : L R C LFE Ls Rs
  39. Sampling rate : 48.0 kHz
  40. Frame rate : 31.250 FPS (1536 SPF)
  41. Compression mode : Lossy
  42. Stream size : 64.5 MiB (1%)
  43. Language : English
  44. Service kind : Complete Main
  45. Default : Yes
  46. Forced : No

  47. Text
  48. ID : 3
  49. Format : UTF-8
  50. Codec ID : S_TEXT/UTF8
  51. Codec ID/Info : UTF-8 Plain Text
  52. Title : English [SDH]
  53. Language : English
  54. Default : No
  55. Forced : No
复制代码

傲骨之战最终季 / 傲战法庭/傲骨之战 第六季4k.The.Good.Fight.S06E01.HDR.2160p.WEB.H265-4k美剧下载

傲骨之战 第六季4k.The.Good.Fight.S06E01.HDR.2160p.WEB.H265【4.52 GB】
[4k世界]傲骨之战 第六季4k.The.Good.Fight.S06E01.HDR.2160p.WEB.H265-GGEZ.torrent (23.32 KB)
回复

使用道具 举报

全部回复1

olivermen 2

22-9-26 20:19

好美剧!!!!
回复 支持 反对

使用道具 举报

   发表回复

您需要登录后才可以回帖 登录 | 立即注册

返回列表 本版积分规则

  • 购买会员

  • 帮助

  • 回顶部