4K世界

电影封面:
片  名: 狩猎4k
导  演: 李政宰
电影分类: 动作   剧情   
国  家: 韩国 
年  代: 2022年
豆瓣评分: 7.7 分
分 辨 率: 4K(3840x2160)
资源特性:  
画质标准: SDR 
音质编码: Dolby Digital Plus Audio   
电影声道: 5.1声道    
帧数/FPS: 23.976 帧
电影语言: 原版字幕 
中文字幕: /thread-74045-1-1.html
剧情简介: 讲述国家安全企划部的两名重要官员朴平浩和金正道追捕潜伏韩国的朝鲜间谍头子揭秘惊人真相的故事。 这是李政宰转型导演的处女作。
猎首密令(台) / 猎战(港) / 南山 / Hunt/狩猎4k.Hunt.2022.KOREAN.2160p.NF.WEB-DL.x265.10bit.SDR.DDP5.1-电影信息
  1. Video
  2. ID : 1
  3. Format : HEVC
  4. Format/Info : High Efficiency Video Coding
  5. Format profile : Main 10@L5@Main
  6. Codec ID : V_MPEGH/ISO/HEVC
  7. Duration : 2 h 5 min
  8. Bit rate : 11.9 Mb/s
  9. Width : 3 840 pixels
  10. Height : 2 160 pixels
  11. Display aspect ratio : 16:9
  12. Frame rate mode : Constant
  13. Frame rate : 23.976 (24000/1001) FPS
  14. Color space : YUV
  15. Chroma subsampling : 4:2:0
  16. Bit depth : 10 bits
  17. Bits/(Pixel*Frame) : 0.060
  18. Stream size : 10.4 GiB (95%)
  19. Default : Yes
  20. Forced : No
  21. Color range : Limited
  22. Color primaries : BT.709
  23. Transfer characteristics : BT.709
  24. Matrix coefficients : BT.709

  25. Audio
  26. ID : 2
  27. Format : E-AC-3
  28. Format/Info : Enhanced AC-3
  29. Commercial name : Dolby Digital Plus
  30. Codec ID : A_EAC3
  31. Duration : 2 h 5 min
  32. Bit rate mode : Constant
  33. Bit rate : 640 kb/s
  34. Channel(s) : 6 channels
  35. Channel layout : L R C LFE Ls Rs
  36. Sampling rate : 48.0 kHz
  37. Frame rate : 31.250 FPS (1536 SPF)
  38. Compression mode : Lossy
  39. Stream size : 574 MiB (5%)
  40. Language : Korean
  41. Service kind : Complete Main
  42. Default : Yes
  43. Forced : No

  44. Text #1
  45. ID : 3
  46. Format : UTF-8
  47. Codec ID : S_TEXT/UTF8
  48. Codec ID/Info : UTF-8 Plain Text
  49. Duration : 1 h 59 min
  50. Bit rate : 90 b/s
  51. Frame rate : 0.279 FPS
  52. Count of elements : 2007
  53. Stream size : 79.3 KiB (0%)
  54. Title : SDH
  55. Language : Korean
  56. Default : No
  57. Forced : No

  58. Text #2
  59. ID : 4
  60. Format : UTF-8
  61. Codec ID : S_TEXT/UTF8
  62. Codec ID/Info : UTF-8 Plain Text
  63. Duration : 1 h 59 min
  64. Bit rate : 40 b/s
  65. Frame rate : 0.155 FPS
  66. Count of elements : 1110
  67. Stream size : 35.1 KiB (0%)
  68. Language : English
  69. Default : No
  70. Forced : No

  71. Text #3
  72. ID : 5
  73. Format : UTF-8
  74. Codec ID : S_TEXT/UTF8
  75. Codec ID/Info : UTF-8 Plain Text
  76. Duration : 1 h 58 min
  77. Bit rate : 53 b/s
  78. Frame rate : 0.193 FPS
  79. Count of elements : 1372
  80. Stream size : 46.3 KiB (0%)
  81. Language : Korean
  82. Default : No
  83. Forced : No

  84. Menu
  85. 02:00:06.000 : End Credits
复制代码

猎首密令(台) / 猎战(港) / 南山 / Hunt/狩猎4k.Hunt.2022.KOREAN.2160p.NF.WEB-DL.x265.10bit.SDR.DDP5.1-电影下载

狩猎4k.Hunt.2020.KOREAN.2160p.NF.WEB-DL.x265.10bit.SDR.DDP5.1【10.98 GB】
[4k世界]狩猎4k.Hunt.2020.KOREAN.2160p.NF.WEB-DL.x265.10bit.SDR.DDP5.1-SKYWORTHGLOBE.torrent (14.37 KB, 售价: 3 个K币)
回复

使用道具 举报

全部点评43

徕卡M7 2023-1-13 12:02 显示全部楼层

徕卡M7 2

2023-1-13 12:02

沙发,据说不错,不知道有字幕吗
回复 支持 反对

使用道具 举报

广东广州在路上 3

2023-1-13 12:54

终于有了,谢谢!
回复 支持 反对

使用道具 举报

xjf6185 2023-1-13 17:01 显示全部楼层

xjf6185 4

2023-1-13 17:01

不知道有字幕吗
回复 支持 反对

使用道具 举报

366428414 2023-1-13 21:35 Hao4K手机版 显示全部楼层

366428414 5

2023-1-13 21:35

漂亮
回复 支持 反对

使用道具 举报

cxd98 2023-1-14 08:00 显示全部楼层

cxd98 6

2023-1-14 08:00

非常喜欢呢,同问是否有字幕...谢谢分享!
回复 支持 反对

使用道具 举报

cui586 2023-1-14 09:35 显示全部楼层

cui586 7

2023-1-14 09:35

没找到字幕哦~
回复 支持 反对

使用道具 举报

wishan99 2023-1-14 12:02 显示全部楼层

wishan99 8

2023-1-14 12:02

支持一下
回复 支持 反对

使用道具 举报

May1989 2023-1-14 18:27 显示全部楼层

May1989 9

2023-1-14 18:27

谢谢分享!是否有字幕?
回复 支持 反对

使用道具 举报

yy5621 2023-1-14 19:18 显示全部楼层

yy5621 10

2023-1-14 19:18

非常喜欢呢,同问是否有字幕...谢谢分享!
回复 支持 反对

使用道具 举报

a565784077 2023-1-14 19:58 显示全部楼层

a565784077 11

2023-1-14 19:58

个人调轴,官方字幕,匹配4K版本

Hunt.2022.2160p.NF.WEB-DL.DDP5.1.HEVC-SKYWORTHGLOBE.chn.srt (86.05 KB, 售价: 2 个K币)
回复 支持 4 反对 0

使用道具 举报

cxd98 2023-1-15 08:14 显示全部楼层

cxd98 12

2023-1-15 08:14

a565784077 发表于 2023-1-14 19:58
个人调轴,官方字幕,匹配4K版本

您辛苦啦,谢谢分享!
回复 支持 反对

使用道具 举报

lhm12315 2023-1-15 11:45 显示全部楼层

lhm12315 13

2023-1-15 11:45

提供字幕的小伙伴辛苦了,感激
回复 支持 反对

使用道具 举报

心爱 2023-1-15 12:09 显示全部楼层

心爱 14

2023-1-15 12:09

非常喜欢
回复 支持 反对

使用道具 举报

徕卡M7 2023-1-15 12:12 显示全部楼层

徕卡M7 15

2023-1-15 12:12

a565784077 发表于 2023-1-14 19:58
个人调轴,官方字幕,匹配4K版本

谢谢分享
回复 支持 反对

使用道具 举报

thisgame 2023-1-15 20:27 显示全部楼层

thisgame 16

2023-1-15 20:27

感谢分享,一直惦记着,终于有时间来看了
回复 支持 反对

使用道具 举报

周不通 2023-1-17 00:10 显示全部楼层

周不通 17

2023-1-17 00:10

看过了很不错的电影
回复 支持 反对

使用道具 举报

jmyt2008 2023-1-17 11:27 显示全部楼层

jmyt2008 18

2023-1-17 11:27

谢谢分享!是否有字幕?
回复 支持 反对

使用道具 举报

   发表点评

您需要登录后才可以回帖 登录 | 立即注册

返回列表 本版积分规则

  • 购买会员

  • 帮助

  • 回顶部