4K世界

电影封面:
片  名: 请不要离开我4k
导  演: 奥赞·阿西克坦
电影分类: 剧情   爱情片   
国  家: 其他 
年  代: 2022年
豆瓣评分: 6.3 分
分 辨 率: 4K(3840x2160)
资源特性:  
画质标准: SDR 
音质编码: Dolby Digital Plus Audio   
电影声道: 5.1声道    
帧数/FPS: 24.000 帧
电影语言: 中文简体 中文繁体 原版字幕 
中文字幕: -
剧情简介: Semih\'s girlfriend suddenly breaks up with him. In search of answers about their relationship, he must soon confront what he had long ignored.
勿走 / 不要离开/请不要离开我4k.Dont.Leave.2022.TURKISH.2160p.NF.WEB-DL.x265.10bit.SDR.DDP5.1-电影信息
  1. Video
  2. ID : 1
  3. Format : HEVC
  4. Format/Info : High Efficiency Video Coding
  5. Format profile : Main 10@L5@Main
  6. Codec ID : V_MPEGH/ISO/HEVC
  7. Duration : 1 h 47 min
  8. Bit rate : 18.0 Mb/s
  9. Width : 3 840 pixels
  10. Height : 2 160 pixels
  11. Display aspect ratio : 16:9
  12. Frame rate mode : Constant
  13. Frame rate : 24.000 FPS
  14. Color space : YUV
  15. Chroma subsampling : 4:2:0
  16. Bit depth : 10 bits
  17. Bits/(Pixel*Frame) : 0.090
  18. Stream size : 13.6 GiB (97%)
  19. Default : Yes
  20. Forced : No
  21. Color range : Limited
  22. Color primaries : BT.709
  23. Transfer characteristics : BT.709
  24. Matrix coefficients : BT.709

  25. Audio
  26. ID : 2
  27. Format : E-AC-3
  28. Format/Info : Enhanced AC-3
  29. Commercial name : Dolby Digital Plus
  30. Codec ID : A_EAC3
  31. Duration : 1 h 47 min
  32. Bit rate mode : Constant
  33. Bit rate : 640 kb/s
  34. Channel(s) : 6 channels
  35. Channel layout : L R C LFE Ls Rs
  36. Sampling rate : 48.0 kHz
  37. Frame rate : 31.250 FPS (1536 SPF)
  38. Compression mode : Lossy
  39. Stream size : 494 MiB (3%)
  40. Title : Turkish
  41. Language : Turkish
  42. Service kind : Complete Main
  43. Default : No
  44. Forced : No

  45. Text #1
  46. ID : 3
  47. Format : UTF-8
  48. Codec ID : S_TEXT/UTF8
  49. Codec ID/Info : UTF-8 Plain Text
  50. Duration : 1 h 46 min
  51. Bit rate : 95 b/s
  52. Frame rate : 0.224 FPS
  53. Count of elements : 1434
  54. Stream size : 74.4 KiB (0%)
  55. Title : Arabic
  56. Language : Arabic
  57. Default : No
  58. Forced : No

  59. Text #2
  60. ID : 4
  61. Format : UTF-8
  62. Codec ID : S_TEXT/UTF8
  63. Codec ID/Info : UTF-8 Plain Text
  64. Duration : 1 h 46 min
  65. Bit rate : 55 b/s
  66. Frame rate : 0.247 FPS
  67. Count of elements : 1578
  68. Stream size : 43.7 KiB (0%)
  69. Title : Chinese Simplified
  70. Language : Chinese
  71. Default : No
  72. Forced : No

  73. Text #3
  74. ID : 5
  75. Format : UTF-8
  76. Codec ID : S_TEXT/UTF8
  77. Codec ID/Info : UTF-8 Plain Text
  78. Duration : 1 h 46 min
  79. Bit rate : 54 b/s
  80. Frame rate : 0.226 FPS
  81. Count of elements : 1447
  82. Stream size : 42.4 KiB (0%)
  83. Title : Chinese Traditional
  84. Language : Chinese
  85. Default : No
  86. Forced : No
复制代码

勿走 / 不要离开/请不要离开我4k.Dont.Leave.2022.TURKISH.2160p.NF.WEB-DL.x265.10bit.SDR.DDP5.1-电影下载

请不要离开我4k.Dont.Leave.2022.TURKISH.2160p.NF.WEB-DL.x265.10bit.SDR.DDP5.1-简繁中字【14.05 GB】
[4k世界]请不要离开我4k.Dont.Leave.2022.TURKISH.2160p.NF.WEB-DL.x265.10bit.SDR.DDP5.1-HHWEB.torrent (18.19 KB)
回复

使用道具 举报

全部点评3

marsd 2023-1-24 23:26 显示全部楼层

marsd 2

2023-1-24 23:26

aaaaaaa
回复 支持 反对

使用道具 举报

zs8461 2023-1-26 20:27 显示全部楼层

zs8461 3

2023-1-26 20:27

感谢楼主分享好资源,收藏了~新年快乐~!
回复 支持 反对

使用道具 举报

liyiym 2023-1-27 07:37 Hao4K手机版 显示全部楼层

liyiym 4

2023-1-27 07:37

感谢分享
回复 支持 反对

使用道具 举报

   发表点评

您需要登录后才可以回帖 登录 | 立即注册

返回列表 本版积分规则

  • 购买会员

  • 帮助

  • 回顶部