4K世界

电影封面:
片  名: 站在滑板上:利奥·贝克的故事4k
导  演: Nicola Marsh / Giovanni Reda
电影分类: 纪录片   其他 
国  家: 美国 
年  代: 2022年
豆瓣评分: 8.1 分
分 辨 率: 4K(3840x2160)
资源特性:  
画质标准: SDR 
音质编码: Dolby Digital Plus Audio   
电影声道: 5.1声道    
帧数/FPS: 23.976 帧
电影语言: 原版字幕 
中文字幕: -
剧情简介: 这部的纪录片将通过美国滑板运动员、非二元跨儿利奥·贝克的经历,探讨滑板这项运动的性别问题。
里奥·贝克:逆风滑板手/站在滑板上:利奥·贝克的故事4k.Stay.on.Board.The.Leo.Baker.Story.2022.2160p.NF.WEB-DL.x265.10bit.SDR.DDP5.1-电影信息
  1. Video
  2. ID : 1
  3. Format : HEVC
  4. Format/Info : High Efficiency Video Coding
  5. Format profile : Main 10@L5@Main
  6. Codec ID : V_MPEGH/ISO/HEVC
  7. Duration : 1 h 13 min
  8. Bit rate : 12.0 Mb/s
  9. Width : 3 840 pixels
  10. Height : 2 160 pixels
  11. Display aspect ratio : 16:9
  12. Frame rate mode : Constant
  13. Frame rate : 23.976 (24000/1001) FPS
  14. Color space : YUV
  15. Chroma subsampling : 4:2:0
  16. Bit depth : 10 bits
  17. Bits/(Pixel*Frame) : 0.061
  18. Stream size : 6.16 GiB (95%)
  19. Default : Yes
  20. Forced : No
  21. Color range : Limited
  22. Color primaries : BT.709
  23. Transfer characteristics : BT.709
  24. Matrix coefficients : BT.709

  25. Audio
  26. ID : 2
  27. Format : E-AC-3
  28. Format/Info : Enhanced AC-3
  29. Commercial name : Dolby Digital Plus
  30. Codec ID : A_EAC3
  31. Duration : 1 h 13 min
  32. Bit rate mode : Constant
  33. Bit rate : 640 kb/s
  34. Channel(s) : 6 channels
  35. Channel layout : L R C LFE Ls Rs
  36. Sampling rate : 48.0 kHz
  37. Frame rate : 31.250 FPS (1536 SPF)
  38. Compression mode : Lossy
  39. Stream size : 335 MiB (5%)
  40. Title : English
  41. Language : English
  42. Service kind : Complete Main
  43. Default : Yes
  44. Forced : No

  45. Text #27
  46. ID : 29
  47. Format : UTF-8
  48. Codec ID : S_TEXT/UTF8
  49. Codec ID/Info : UTF-8 Plain Text
  50. Duration : 1 h 12 min
  51. Bit rate : 69 b/s
  52. Frame rate : 0.238 FPS
  53. Count of elements : 1036
  54. Stream size : 36.8 KiB (0%)
  55. Title : Swedish
  56. Language : Swedish
  57. Default : No
  58. Forced : No

  59. Text #28
  60. ID : 30
  61. Format : UTF-8
  62. Codec ID : S_TEXT/UTF8
  63. Codec ID/Info : UTF-8 Plain Text
  64. Duration : 1 h 12 min
  65. Bit rate : 199 b/s
  66. Frame rate : 0.260 FPS
  67. Count of elements : 1134
  68. Stream size : 106 KiB (0%)
  69. Title : Thai
  70. Language : Thai
  71. Default : No
  72. Forced : No

  73. Text #29
  74. ID : 31
  75. Format : UTF-8
  76. Codec ID : S_TEXT/UTF8
  77. Codec ID/Info : UTF-8 Plain Text
  78. Duration : 1 h 12 min
  79. Bit rate : 71 b/s
  80. Frame rate : 0.251 FPS
  81. Count of elements : 1091
  82. Stream size : 38.0 KiB (0%)
  83. Title : Turkish
  84. Language : Turkish
  85. Default : No
  86. Forced : No

  87. Text #30
  88. ID : 32
  89. Format : UTF-8
  90. Codec ID : S_TEXT/UTF8
  91. Codec ID/Info : UTF-8 Plain Text
  92. Duration : 1 h 12 min
  93. Bit rate : 110 b/s
  94. Frame rate : 0.252 FPS
  95. Count of elements : 1099
  96. Stream size : 58.8 KiB (0%)
  97. Title : Ukrainian
  98. Language : Ukrainian
  99. Default : No
  100. Forced : No

  101. Text #31
  102. ID : 33
  103. Format : UTF-8
  104. Codec ID : S_TEXT/UTF8
  105. Codec ID/Info : UTF-8 Plain Text
  106. Duration : 1 h 12 min
  107. Bit rate : 103 b/s
  108. Frame rate : 0.253 FPS
  109. Count of elements : 1101
  110. Stream size : 54.7 KiB (0%)
  111. Title : Vietnamese
  112. Language : Vietnamese
  113. Default : No
  114. Forced : No

  115. Text #32
  116. ID : 34
  117. Format : UTF-8
  118. Codec ID : S_TEXT/UTF8
  119. Codec ID/Info : UTF-8 Plain Text
  120. Duration : 1 h 12 min
  121. Bit rate : 74 b/s
  122. Frame rate : 0.255 FPS
  123. Count of elements : 1110
  124. Stream size : 39.9 KiB (0%)
  125. Title : Simplified, Chinese
  126. Language : Chinese
  127. Default : No
  128. Forced : No

  129. Text #33
  130. ID : 35
  131. Format : UTF-8
  132. Codec ID : S_TEXT/UTF8
  133. Codec ID/Info : UTF-8 Plain Text
  134. Duration : 1 h 12 min
  135. Bit rate : 81 b/s
  136. Frame rate : 0.254 FPS
  137. Count of elements : 1107
  138. Stream size : 43.4 KiB (0%)
  139. Title : Traditional, Chinese
  140. Language : Chinese
  141. Default : No
  142. Forced : No

  143. Menu
  144. 00:00:00.000 : en:Part 01
  145. 01:12:03.450 : en:Credits
复制代码

里奥·贝克:逆风滑板手/站在滑板上:利奥·贝克的故事4k.Stay.on.Board.The.Leo.Baker.Story.2022.2160p.NF.WEB-DL.x265.10bit.SDR.DDP5.1-电影下载

站在滑板上:利奥·贝克的故事4k.Stay.on.Board.The.Leo.Baker.Story.2022.2160p.NF.WEB-DL.x265.10bit.SDR.DDP5.1-简繁中字【6.50 GB】
[4k世界]站在滑板上:利奥·贝克的故事4k.Stay.on.Board.The.Leo.Baker.Story.2022.2160p.NF.WEB-DL.x265.10bit.SDR.DDP5.1-XEBEC.torrent (16.92 KB, 售价: 2 个K币)
回复

使用道具 举报

全部点评2

Chiangck 2023-1-22 15:27 显示全部楼层

Chiangck 2

2023-1-22 15:27

@pump_upp - best crypto pumps on telegram !

https://t.me/pump_upp - best crypto pumps on telegram
Make 1000% and more within 1 day, join channel @pump_upp !
回复 支持 反对

使用道具 举报

zs8461 2023-1-26 20:26 显示全部楼层

zs8461 3

2023-1-26 20:26

感谢楼主分享好资源,收藏了~
回复 支持 反对

使用道具 举报

   发表点评

您需要登录后才可以回帖 登录 | 立即注册

返回列表 本版积分规则

  • 购买会员

  • 帮助

  • 回顶部