4K世界

电影封面:
片  名: 丑陋的真相4k
导  演: 罗伯特·路克蒂克
电影分类: 喜剧   爱情片   
国  家: 美国 
年  代: 00年代
豆瓣评分: 6.7 分
分 辨 率: 4K(3840x2160)
资源特性:  
画质标准: SDR 
音质编码: DTS-HD Master Audio   
电影声道: 5.1声道    
帧数/FPS: 23.976 帧
电影语言: 中文简体 中文繁体 原版字幕 
中文字幕: -
剧情简介: 艾比(凯瑟琳·海格尔 Katherine Heigl 饰)是同事眼中的完美女神,作为早间电视节目制作人的她不仅事业有成,而且还有着一张精致漂亮的脸蛋。但令同事们困扰的是,这样完美的艾比,年近三十却依然单身。只有艾比心里清楚,自己之所以单身,是因为心目中的那个完美先生还没有出现。
  作为艾比的同事,麦克(杰拉德·巴特勒 Gerard Butler 饰)对态度强硬的艾比产生了浓厚的兴趣,所以,当艾比邂逅了医生科林(艾里克·温特 Eric Winter 饰)并为之心动后,他主动提出要为她的恋情出谋划策。在麦克的帮助下,艾比的感情之路一帆风顺,但在这过程中,艾比发现自己对于麦克的感情渐渐地变得复杂起来。
单身大急救(港) / 男女生了没(台) / 丑陋事实 / 女上男下/丑陋的真相4k.The.Ugly.Truth.2009.2160p.NF.WEB-DL.x265.10bit.SDR.DTS-HD.MA.5.1-电影信息
  1. Video
  2. ID : 1
  3. Format : HEVC
  4. Format/Info : High Efficiency Video Coding
  5. Format profile : Main 10@L5@Main
  6. Codec ID : V_MPEGH/ISO/HEVC
  7. Duration : 1 h 36 min
  8. Bit rate : 17.3 Mb/s
  9. Width : 3 840 pixels
  10. Height : 2 160 pixels
  11. Display aspect ratio : 16:9
  12. Frame rate mode : Constant
  13. Frame rate : 23.976 (24000/1001) FPS
  14. Color space : YUV
  15. Chroma subsampling : 4:2:0
  16. Bit depth : 10 bits
  17. Bits/(Pixel*Frame) : 0.087
  18. Stream size : 11.6 GiB (81%)
  19. Default : Yes
  20. Forced : No
  21. Color range : Limited
  22. Color primaries : BT.709
  23. Transfer characteristics : BT.709
  24. Matrix coefficients : BT.709

  25. Audio #1
  26. ID : 2
  27. Format : DTS XLL
  28. Format/Info : Digital Theater Systems
  29. Commercial name : DTS-HD Master Audio
  30. Codec ID : A_DTS
  31. Duration : 1 h 35 min
  32. Bit rate mode : Variable
  33. Bit rate : 2 889 kb/s
  34. Channel(s) : 6 channels
  35. Channel layout : C L R Ls Rs LFE
  36. Sampling rate : 48.0 kHz
  37. Frame rate : 93.750 FPS (512 SPF)
  38. Bit depth : 24 bits
  39. Compression mode : Lossless
  40. Stream size : 1.94 GiB (13%)
  41. Title : DTS-HD MA 5.1
  42. Language : English
  43. Default : Yes
  44. Forced : No

  45. Audio #2
  46. ID : 3
  47. Format : E-AC-3
  48. Format/Info : Enhanced AC-3
  49. Commercial name : Dolby Digital Plus
  50. Codec ID : A_EAC3
  51. Duration : 1 h 36 min
  52. Bit rate mode : Constant
  53. Bit rate : 640 kb/s
  54. Channel(s) : 6 channels
  55. Channel layout : L R C LFE Ls Rs
  56. Sampling rate : 48.0 kHz
  57. Frame rate : 31.250 FPS (1536 SPF)
  58. Compression mode : Lossy
  59. Stream size : 440 MiB (3%)
  60. Title : English
  61. Language : English
  62. Service kind : Complete Main
  63. Default : No
  64. Forced : No

  65. Audio #3
  66. ID : 4
  67. Format : AC-3
  68. Format/Info : Audio Coding 3
  69. Commercial name : Dolby Digital
  70. Format settings : Dolby Surround
  71. Codec ID : A_AC3
  72. Duration : 1 h 35 min
  73. Bit rate mode : Constant
  74. Bit rate : 192 kb/s
  75. Channel(s) : 2 channels
  76. Channel layout : L R
  77. Sampling rate : 48.0 kHz
  78. Frame rate : 31.250 FPS (1536 SPF)
  79. Compression mode : Lossy
  80. Stream size : 132 MiB (1%)
  81. Title : Commentary by Director Robert Luketic and Producer Gary Lucchesi
  82. Language : English
  83. Service kind : Complete Main
  84. Default : No
  85. Forced : No


  86. Text #23
  87. ID : 27
  88. Format : UTF-8
  89. Codec ID : S_TEXT/UTF8
  90. Codec ID/Info : UTF-8 Plain Text
  91. Duration : 1 h 30 min
  92. Bit rate : 67 b/s
  93. Frame rate : 0.273 FPS
  94. Count of elements : 1479
  95. Stream size : 44.4 KiB (0%)
  96. Title : Polish
  97. Language : Polish
  98. Default : No
  99. Forced : No

  100. Text #24
  101. ID : 28
  102. Format : UTF-8
  103. Codec ID : S_TEXT/UTF8
  104. Codec ID/Info : UTF-8 Plain Text
  105. Duration : 1 h 30 min
  106. Bit rate : 85 b/s
  107. Frame rate : 0.277 FPS
  108. Count of elements : 1500
  109. Stream size : 56.5 KiB (0%)
  110. Title : Portuguese
  111. Language : Portuguese
  112. Default : No
  113. Forced : No

  114. Text #25
  115. ID : 29
  116. Format : UTF-8
  117. Codec ID : S_TEXT/UTF8
  118. Codec ID/Info : UTF-8 Plain Text
  119. Duration : 1 h 30 min
  120. Bit rate : 75 b/s
  121. Frame rate : 0.269 FPS
  122. Count of elements : 1457
  123. Stream size : 50.0 KiB (0%)
  124. Title : Portuguese
  125. Language : Portuguese
  126. Default : No
  127. Forced : No

  128. Text #26
  129. ID : 30
  130. Format : UTF-8
  131. Codec ID : S_TEXT/UTF8
  132. Codec ID/Info : UTF-8 Plain Text
  133. Duration : 1 h 30 min
  134. Bit rate : 83 b/s
  135. Frame rate : 0.283 FPS
  136. Count of elements : 1532
  137. Stream size : 55.3 KiB (0%)
  138. Title : Romanian
  139. Language : Romanian
  140. Default : No
  141. Forced : No

  142. Text #27
  143. ID : 31
  144. Format : UTF-8
  145. Codec ID : S_TEXT/UTF8
  146. Codec ID/Info : UTF-8 Plain Text
  147. Duration : 1 h 34 min
  148. Bit rate : 126 b/s
  149. Frame rate : 0.268 FPS
  150. Count of elements : 1524
  151. Stream size : 87.6 KiB (0%)
  152. Title : Russian
  153. Language : Russian
  154. Default : No
  155. Forced : No

  156. Text #28
  157. ID : 32
  158. Format : UTF-8
  159. Codec ID : S_TEXT/UTF8
  160. Codec ID/Info : UTF-8 Plain Text
  161. Duration : 1 h 34 min
  162. Bit rate : 70 b/s
  163. Frame rate : 0.203 FPS
  164. Count of elements : 1149
  165. Stream size : 48.6 KiB (0%)
  166. Title : Swedish
  167. Language : Swedish
  168. Default : No
  169. Forced : No

  170. Text #29
  171. ID : 33
  172. Format : UTF-8
  173. Codec ID : S_TEXT/UTF8
  174. Codec ID/Info : UTF-8 Plain Text
  175. Duration : 1 h 34 min
  176. Bit rate : 198 b/s
  177. Frame rate : 0.268 FPS
  178. Count of elements : 1520
  179. Stream size : 138 KiB (0%)
  180. Title : Thai
  181. Language : Thai
  182. Default : No
  183. Forced : No

  184. Text #30
  185. ID : 34
  186. Format : UTF-8
  187. Codec ID : S_TEXT/UTF8
  188. Codec ID/Info : UTF-8 Plain Text
  189. Duration : 1 h 30 min
  190. Bit rate : 80 b/s
  191. Frame rate : 0.281 FPS
  192. Count of elements : 1522
  193. Stream size : 53.5 KiB (0%)
  194. Title : Turkish
  195. Language : Turkish
  196. Default : No
  197. Forced : No

  198. Text #31
  199. ID : 35
  200. Format : UTF-8
  201. Codec ID : S_TEXT/UTF8
  202. Codec ID/Info : UTF-8 Plain Text
  203. Duration : 1 h 34 min
  204. Bit rate : 143 b/s
  205. Frame rate : 0.275 FPS
  206. Count of elements : 1560
  207. Stream size : 99.0 KiB (0%)
  208. Title : Ukrainian
  209. Language : Ukrainian
  210. Default : No
  211. Forced : No

  212. Text #32
  213. ID : 36
  214. Format : UTF-8
  215. Codec ID : S_TEXT/UTF8
  216. Codec ID/Info : UTF-8 Plain Text
  217. Duration : 1 h 34 min
  218. Bit rate : 115 b/s
  219. Frame rate : 0.268 FPS
  220. Count of elements : 1522
  221. Stream size : 80.1 KiB (0%)
  222. Title : Vietnamese
  223. Language : Vietnamese
  224. Default : No
  225. Forced : No

  226. Text #33
  227. ID : 37
  228. Format : UTF-8
  229. Codec ID : S_TEXT/UTF8
  230. Codec ID/Info : UTF-8 Plain Text
  231. Duration : 1 h 30 min
  232. Bit rate : 70 b/s
  233. Frame rate : 0.281 FPS
  234. Count of elements : 1520
  235. Stream size : 46.4 KiB (0%)
  236. Title : Simplified, Chinese
  237. Language : Chinese
  238. Default : No
  239. Forced : No

  240. Text #34
  241. ID : 38
  242. Format : UTF-8
  243. Codec ID : S_TEXT/UTF8
  244. Codec ID/Info : UTF-8 Plain Text
  245. Duration : 1 h 30 min
  246. Bit rate : 70 b/s
  247. Frame rate : 0.281 FPS
  248. Count of elements : 1520
  249. Stream size : 46.3 KiB (0%)
  250. Title : Traditional, Chinese
  251. Language : Chinese
  252. Default : No
  253. Forced : No
复制代码

单身大急救(港) / 男女生了没(台) / 丑陋事实 / 女上男下/丑陋的真相4k.The.Ugly.Truth.2009.2160p.NF.WEB-DL.x265.10bit.SDR.DTS-HD.MA.5.1-电影下载

丑陋的真相4k.The.Ugly.Truth.2009.2160p.NF.WEB-DL.x265.10bit.SDR.DTS-HD.MA.5.1-简繁中字【14.35 GB】
[4K世界]丑陋的真相4k.The.Ugly.Truth.2009.2160p.NF.WEB-DL.x265.10bit.SDR.DTS-HD.MA.5.1-NOGRP.torrent (18.61 KB)
回复

使用道具 举报

全部点评4

fswwen 2023-1-24 08:03 显示全部楼层

fswwen 2

2023-1-24 08:03


谢谢分享
回复 支持 反对

使用道具 举报

gofaster 2023-1-24 11:31 显示全部楼层

gofaster 3

2023-1-24 11:31

谢谢分享!
回复 支持 反对

使用道具 举报

steveqzy 2023-1-29 23:01 Hao4K手机版 显示全部楼层

steveqzy 4

2023-1-29 23:01

谢谢分享!
回复 支持 反对

使用道具 举报

lg132 2023-1-30 08:18 Hao4K手机版 显示全部楼层

lg132 5

2023-1-30 08:18

谢谢分享!
回复 支持 反对

使用道具 举报

   发表点评

您需要登录后才可以回帖 登录 | 立即注册

返回列表 本版积分规则

  • 购买会员

  • 帮助

  • 回顶部