4K世界

电影封面:
片  名: 最后华尔兹4k
导  演: 马丁·斯科塞斯
电影分类: 纪录片   音乐 
国  家: 美国 
年  代: 70年代  
豆瓣评分: 8.5 分
分 辨 率: 4K(3840x2160)
资源特性:  
画质标准: HDR10   
音质编码: Dolby Digital Plus Audio   
电影声道: 5.1声道    
帧数/FPS: 23.976 帧
电影语言: 原版字幕   
中文字幕: /thread-74686-1-1.html
剧情简介: 本片是美国摇滚乐队“THE BAND"在三藩市作告别演出音乐会的纪录片。 片中的大腕实在太多了。
  马丁.史高塞斯的导演手法出色,在把握节奏、色彩运用方面掌握得非常有尺度;鲍里斯.李文的摄影技术也是炉火纯青,使得本片成为摇滚乐纪录片的代表作之一。
最后华尔兹4k.The.Last.Waltz.1978.2160p.UHD.BluRay.x265.10bit.HDR.DDP5.1-纪录片信息
  1. Video
  2. ID : 1
  3. Format : HEVC
  4. Format/Info : High Efficiency Video Coding
  5. Format profile : Main 10@L5.1@Main
  6. HDR format : SMPTE ST 2086, HDR10 compatible
  7. Codec ID : V_MPEGH/ISO/HEVC
  8. Duration : 1 h 57 min
  9. Bit rate : 8 022 kb/s
  10. Width : 3 840 pixels
  11. Height : 2 076 pixels
  12. Display aspect ratio : 1.85:1
  13. Frame rate mode : Constant
  14. Frame rate : 23.976 (24000/1001) FPS
  15. Color space : YUV
  16. Chroma subsampling : 4:2:0
  17. Bit depth : 10 bits
  18. Bits/(Pixel*Frame) : 0.042
  19. Stream size : 6.57 GiB (93%)
  20. Writing library : x265 3.5+rarbg-HDR-38-20255e6:[Linux][clang 16.0.0][64 bit] 10bit
  21. Encoding settings : cpuid=1111039 / frame-threads=6 / wpp / no-pmode / no-pme / no-psnr / no-ssim / log-level=2 / input-csp=1 / input-res=3840x2076 / interlace=0 / total-frames=0 / level-idc=51 / high-tier=1 / uhd-bd=0 / ref=4 / no-allow-non-conformance / repeat-headers / annexb / aud / no-eob / no-eos / no-hrd / info / hash=0 / no-temporal-layers / no-open-gop / min-keyint=1 / keyint=24 / gop-lookahead=0 / bframes=4 / b-adapt=2 / b-pyramid / bframe-bias=0 / rc-lookahead=25 / lookahead-slices=4 / scenecut=40 / no-hist-scenecut / radl=0 / no-splice / no-intra-refresh / ctu=64 / min-cu-size=8 / rect / no-amp / max-tu-size=32 / tu-inter-depth=1 / tu-intra-depth=1 / limit-tu=0 / rdoq-level=2 / dynamic-rd=0.00 / no-ssim-rd / signhide / no-tskip / nr-intra=0 / nr-inter=0 / no-constrained-intra / strong-intra-smoothing / max-merge=3 / limit-refs=3 / no-limit-modes / me=3 / subme=3 / merange=57 / temporal-mvp / no-frame-dup / no-hme / weightp / no-weightb / no-analyze-src-pics / deblock=0:0 / no-sao / no-sao-non-deblock / rd=4 / selective-sao=0 / no-early-skip / rskip / no-fast-intra / no-tskip-fast / no-cu-lossless / no-b-intra / no-splitrd-skip / rdpenalty=0 / psy-rd=2.00 / psy-rdoq=1.00 / no-rd-refine / no-lossless / cbqpoffs=0 / crqpoffs=0 / rc=abr / bitrate=8000 / qcomp=0.60 / qpstep=4 / stats-write=0 / stats-read=2 / cplxblur=20.0 / qblur=0.5 / ipratio=1.40 / pbratio=1.30 / aq-mode=1 / aq-strength=1.00 / cutree / zone-count=0 / no-strict-cbr / qg-size=32 / no-rc-grain / qpmax=69 / qpmin=0 / no-const-vbv / sar=1 / overscan=0 / videoformat=5 / range=0 / colorprim=9 / transfer=16 / colormatrix=9 / chromaloc=0 / display-window=0 / master-display=G(8500,39850)B(6550,2300)R(35400,14600)WP(15635,16450)L(10000000,1) / cll=902,58 / min-luma=0 / max-luma=1023 / log2-max-poc-lsb=8 / vui-timing-info / vui-hrd-info / slices=1 / no-opt-qp-pps / no-opt-ref-list-length-pps / no-multi-pass-opt-rps / scenecut-bias=0.05 / hist-threshold=0.03 / no-opt-cu-delta-qp / no-aq-motion / hdr10 / hdr10-opt / no-dhdr10-opt / no-idr-recovery-sei / analysis-reuse-level=0 / analysis-save-reuse-level=0 / analysis-load-reuse-level=0 / scale-factor=0 / refine-intra=0 / refine-inter=0 / refine-mv=1 / refine-ctu-distortion=0 / no-limit-sao / ctu-info=0 / no-lowpass-dct / refine-analysis-type=0 / copy-pic=1 / max-ausize-factor=1.0 / no-dynamic-refine / no-single-sei / no-hevc-aq / no-svt / no-field / qp-adaptation-range=1.00 / scenecut-aware-qp=0conformance-window-offsets / right=0 / bottom=0 / decoder-max-rate=0 / no-vbv-live-multi-pass
  22. Default : Yes
  23. Forced : No
  24. Color range : Limited
  25. Color primaries : BT.2020
  26. Transfer characteristics : PQ
  27. Matrix coefficients : BT.2020 non-constant
  28. Mastering display color primaries : BT.2020
  29. Mastering display luminance : min: 0.0001 cd/m2, max: 1000 cd/m2
  30. Maximum Content Light Level : 902 cd/m2
  31. Maximum Frame-Average Light Level : 58 cd/m2

  32. Audio
  33. ID : 2
  34. Format : E-AC-3
  35. Format/Info : Enhanced AC-3
  36. Commercial name : Dolby Digital Plus
  37. Codec ID : A_EAC3
  38. Duration : 1 h 57 min
  39. Bit rate mode : Constant
  40. Bit rate : 640 kb/s
  41. Channel(s) : 6 channels
  42. Channel layout : L R C LFE Ls Rs
  43. Sampling rate : 48.0 kHz
  44. Frame rate : 31.250 FPS (1536 SPF)
  45. Compression mode : Lossy
  46. Stream size : 536 MiB (7%)
  47. Title : English DDP 5.1
  48. Language : English
  49. Service kind : Complete Main
  50. Default : Yes
  51. Forced : No

  52. Text #1
  53. ID : 3
  54. Format : UTF-8
  55. Codec ID : S_TEXT/UTF8
  56. Codec ID/Info : UTF-8 Plain Text
  57. Duration : 1 h 50 min
  58. Bit rate : 48 b/s
  59. Frame rate : 0.166 FPS
  60. Count of elements : 1100
  61. Stream size : 39.7 KiB (0%)
  62. Title : English SRT
  63. Language : English
  64. Default : Yes
  65. Forced : No

  66. Text #2
  67. ID : 4
  68. Format : UTF-8
  69. Codec ID : S_TEXT/UTF8
  70. Codec ID/Info : UTF-8 Plain Text
  71. Duration : 1 h 56 min
  72. Bit rate : 49 b/s
  73. Frame rate : 0.168 FPS
  74. Count of elements : 1178
  75. Stream size : 42.0 KiB (0%)
  76. Title : English SDH SRT
  77. Language : English
  78. Default : No
  79. Forced : No

  80. Menu
  81. 00:00:00.000 : en:Chapter 01
  82. 00:04:09.540 : en:Chapter 02
  83. 00:07:45.298 : en:Chapter 03
  84. 00:11:30.189 : en:Chapter 04
  85. 00:16:00.876 : en:Chapter 05
  86. 00:20:09.958 : en:Chapter 06
  87. 00:26:47.188 : en:Chapter 07
  88. 00:30:29.911 : en:Chapter 08
  89. 00:36:07.456 : en:Chapter 09
  90. 00:40:25.256 : en:Chapter 10
  91. 00:46:06.180 : en:Chapter 11
  92. 00:51:26.958 : en:Chapter 12
  93. 00:56:48.655 : en:Chapter 13
  94. 01:03:46.948 : en:Chapter 14
  95. 01:08:05.372 : en:Chapter 15
  96. 01:13:39.540 : en:Chapter 16
  97. 01:18:48.640 : en:Chapter 17
  98. 01:24:45.330 : en:Chapter 18
  99. 01:30:28.423 : en:Chapter 19
  100. 01:37:04.068 : en:Chapter 20
  101. 01:46:06.860 : en:Chapter 21
  102. 01:51:05.867 : en:Chapter 22
复制代码

最后华尔兹4k.The.Last.Waltz.1978.2160p.UHD.BluRay.x265.10bit.HDR.DDP5.1-纪录片下载

最后华尔兹4k.The.Last.Waltz.1978.2160p.UHD.BluRay.x265.10bit.HDR.DDP5.1【HDR 7.09 GB】
[4k世界]最后华尔兹4k.The.Last.Waltz.1978.2160p.UHD.BluRay.x265.10bit.HDR.DDP5.1-RARBG.torrent (9.5 KB, 售价: 3 个K币)
回复

使用道具 举报

全部点评9

LAIEE 2023-2-20 08:39 显示全部楼层

LAIEE 2

2023-2-20 08:39

感谢大佬分享资源~
回复 支持 反对

使用道具 举报

yp_g 2023-2-20 09:37 显示全部楼层

yp_g 3

2023-2-20 09:37

爱音乐爱生活,美丽华尔兹
回复 支持 反对

使用道具 举报

ihbj31415 2023-2-20 10:54 显示全部楼层

ihbj31415 4

2023-2-20 10:54

谢谢资源分享~
回复 支持 反对

使用道具 举报

zhangya23 2023-2-20 16:36 显示全部楼层

zhangya23 5

2023-2-20 16:36

谢谢资源分享
回复 支持 反对

使用道具 举报

duben 2023-2-20 18:16 显示全部楼层

duben 6

2023-2-20 18:16

感谢分享,很火的资源
回复 支持 反对

使用道具 举报

ben51 2023-2-20 20:02 显示全部楼层

ben51 7

2023-2-20 20:02

好听好看
回复 支持 反对

使用道具 举报

kukumalu716 8

2023-2-21 19:05

最后华尔兹4k 导  演:        马丁·斯科塞斯 经典重制:victory:
回复 支持 反对

使用道具 举报

hao4kyxg 2023-2-23 11:48 显示全部楼层

hao4kyxg 9

2023-2-23 11:48

感谢楼主分享
回复 支持 反对

使用道具 举报

zjyucool 2023-2-27 14:28 显示全部楼层

zjyucool 10

2023-2-27 14:28

感谢分享
回复 支持 反对

使用道具 举报

   发表点评

您需要登录后才可以回帖 登录 | 立即注册

返回列表 本版积分规则

  • 购买会员

  • 帮助

  • 回顶部