注册/登陆
游客您好
第三方账号登陆


炙爱恒情4K Burning.Patience.2022.SPANISH.2160p电影下载
[复制链接]
2023-04-09 发布
  • 8K高级玩家
  • 20
  • 1212
青衫烟雨 发表于 2023-4-9 22:50:14 |阅读模式 打印 上一主题 下一主题
炙爱恒情4K
2022年(豆瓣:0)
  • 电影声道:5.1声道 
  • 音质编码:Dolby Digital Plus Audio 
  • 画质标准 HDR 
  • 帧数/FPS:23.976 Fps
    资源版本  
    发布排行:第 部4K原盘
    导  演:Boris Quercia
    制片国家:其他 
    电影分类:剧情 
    分 辨 率:4K(3840x2160)
    电影语言:原版字幕   
简介一名年轻男子成了巴布罗·聂鲁达的信差,一脚踏进文字的世界,他心中的诗人魂熊熊燃起,追求梦中情人的渴望也愈发迫切。
  • 电影下载
  • 资源INFO
  • 下载说明
  • 电影信息INFO
  • 下载方法
    115网盘链接:
    使用115浏览器打开链接、输入访问码、右上角点击下载即可,每秒2MB速度(无需开通会员)看详细教程

    BT种子下载:
    使用BT下载软件打开本站下载的BT种子文件、选择存储目录、点击确认即可。
    BT下载软件:qBittorrent(推荐)、uTorrent、FDM、比特精灵、BitTorrent

    磁力链下载:
    将磁力链复制到BT下载软件中、选择存储目录、点击确认即可


    多个种子/电影版本区别
    蓝光原盘(BDMV/ISO)
    俗称4K蓝光原盘,也就是从4K UHD蓝光碟中提取出来的源文件,由多个m2ts文件组成,与正版盘完全一致,且包含了光盘所有内容 (影片花絮、字幕、导航菜单、多语言多音轨、HDR 信息)等等,文件体积大,一部电影约有60GB+。此版本资源一般以「BDMV 文件夹」或「BDISO」 (iso) 格式发布;该版本可以用刻录机成带导航的光盘效果。

    DIY蓝光原盘(BDMV/ISO)
    经资源制作组基于蓝光原盘BDMV版本进行第二次DIY的版本,将片头AE特效、画面HDR调色、封装国语音轨、封装中文简体/繁体/英文等多语言字幕,更精彩的是是特效字幕(将电影画面中某些细节翻译成中文字幕)。

    蓝光BD-REMUX
    俗称REMUX,可以视为「音画质无损的精简版」"4K原盘",它其实就是将原盘里多余的一些音轨、花絮、菜单、字幕等东西移除或精简,仅保留主要的视频、主要音轨和部分语言字幕,然后再封装成「单个文件」的 .mkv 格式而来,其音质画质与BDMV蓝光原盘一致,但文件体积上能大幅缩减且成单个文件,在电脑上播放/管理/电视播放/播放器播放和分享起来也更方便。适合追求原盘音画质、不重视花絮周边内容、又希望稍微节省点硬盘空间的朋友。

    WEB-DL/WEBRip/流媒体版本
    WEB-DL 或 WEBRip 格式的影片主要来自 、Amazon Prime Video、Netflix、Hulu、YouTube 等「在线网络高清片源」。尽管这些服务提供了4K分辨率 (部分含 HDR) 的片源,但它们为了在线观看的流畅性,都会将视频画质进行较大幅度「有损压缩」。 WEB-DL 是 Web Download 的意思,指通过技术手段「直接下载」回来的在线视频 WEBRip 很多时候则是通过"屏幕转录"等方式二次录制,会造成多一次的画质损失。

    本站4K电影版块资源99%是真4K,都是从UHD蓝光碟片中提取而来!本站未发布的4K资源,全网都没有(除非假4K),所以发帖求资源也没用。

    下载速度慢怎么办
    1、正常情况使用《UTorrent》跟着网站发布资源节奏下载速度很快,可以达到宽带最大速度(电信)
    2、推荐使用《115网盘》下载速度又快又稳定,请勿使用迅雷下载;
    3、下载慢是有多方面原因,即依赖种子的热度、也要求是电信宽带(非移动/联通),同时选择对的下载软件和软件设置方法。
    4、使用BT协议下载没有速度,请更新《Trackers服务器》能够增加在线用户(越多越好),该方法使用《UTorrent》下载效果显著。
    更多下载问题参考: 4K电影下载指南>>



炙爱恒情4K Burning.Patience.2022.SPANISH.2160p.NF.WEB-DL.x265.10bit.HDR.DDP5.1.Atmos-4K电影信息
  1. Video
  2. ID : 1
  3. Format : HEVC
  4. Format/Info : High Efficiency Video Coding
  5. Format profile : Main 10@L5@Main
  6. HDR format : Dolby Vision, Version 1.0, dvhe.08.06, BL+RPU, HDR10 compatible / SMPTE ST 2086, HDR10 compatible
  7. Codec ID : V_MPEGH/ISO/HEVC
  8. Duration : 1 h 36 min
  9. Bit rate : 19.2 Mb/s
  10. Width : 3 840 pixels
  11. Height : 2 160 pixels
  12. Display aspect ratio : 16:9
  13. Frame rate mode : Constant
  14. Frame rate : 24.000 FPS
  15. Color space : YUV
  16. Chroma subsampling : 4:2:0 (Type 2)
  17. Bit depth : 10 bits
  18. Bits/(Pixel*Frame) : 0.096
  19. Stream size : 12.9 GiB (96%)
  20. Language : Spanish
  21. Default : Yes
  22. Forced : No
  23. Color range : Limited
  24. Color primaries : BT.2020
  25. Transfer characteristics : PQ
  26. Matrix coefficients : BT.2020 non-constant
  27. Mastering display color primaries : Display P3
  28. Mastering display luminance : min: 0.0001 cd/m2, max: 1000 cd/m2
  29. Maximum Content Light Level : 973 cd/m2
  30. Maximum Frame-Average Light Level : 178 cd/m2

  31. Audio
  32. ID : 2
  33. Format : E-AC-3 JOC
  34. Format/Info : Enhanced AC-3 with Joint Object Coding
  35. Commercial name : Dolby Digital Plus with Dolby Atmos
  36. Codec ID : A_EAC3
  37. Duration : 1 h 36 min
  38. Bit rate mode : Constant
  39. Bit rate : 768 kb/s
  40. Channel(s) : 6 channels
  41. Channel layout : L R C LFE Ls Rs
  42. Sampling rate : 48.0 kHz
  43. Frame rate : 31.250 FPS (1536 SPF)
  44. Compression mode : Lossy
  45. Stream size : 532 MiB (4%)
  46. Title : Latin American
  47. Language : Spanish (Latin America)
  48. Service kind : Complete Main
  49. Default : Yes
  50. Forced : No
  51. Complexity index : 16
  52. Number of dynamic objects : 15
  53. Bed channel count : 1 channel
  54. Bed channel configuration : LFE

  55. Text #1
  56. ID : 3
  57. Format : UTF-8
  58. Codec ID : S_TEXT/UTF8
  59. Codec ID/Info : UTF-8 Plain Text
  60. Duration : 1 h 30 min
  61. Bit rate : 64 b/s
  62. Frame rate : 0.258 FPS
  63. Count of elements : 1394
  64. Stream size : 42.8 KiB (0%)
  65. Title : Latin American
  66. Language : Spanish (Latin America)
  67. Default : No
  68. Forced : No

  69. Text #2
  70. ID : 4
  71. Format : UTF-8
  72. Codec ID : S_TEXT/UTF8
  73. Codec ID/Info : UTF-8 Plain Text
  74. Duration : 1 h 30 min
  75. Bit rate : 67 b/s
  76. Frame rate : 0.269 FPS
  77. Count of elements : 1463
  78. Stream size : 45.1 KiB (0%)
  79. Title : Latin American (SDH)
  80. Language : Spanish (Latin America)
  81. Default : No
  82. Forced : No

  83. Text #3
  84. ID : 5
  85. Format : UTF-8
  86. Codec ID : S_TEXT/UTF8
  87. Codec ID/Info : UTF-8 Plain Text
  88. Duration : 1 h 36 min
  89. Bit rate : 83 b/s
  90. Frame rate : 0.239 FPS
  91. Count of elements : 1379
  92. Stream size : 59.1 KiB (0%)
  93. Language : Arabic
  94. Default : No
  95. Forced : No

  96. Text #4
  97. ID : 6
  98. Format : UTF-8
  99. Codec ID : S_TEXT/UTF8
  100. Codec ID/Info : UTF-8 Plain Text
  101. Duration : 1 h 31 min
  102. Bit rate : 56 b/s
  103. Frame rate : 0.179 FPS
  104. Count of elements : 988
  105. Stream size : 38.3 KiB (0%)
  106. Language : Czech
  107. Default : No
  108. Forced : No

  109. Text #5
  110. ID : 7
  111. Format : UTF-8
  112. Codec ID : S_TEXT/UTF8
  113. Codec ID/Info : UTF-8 Plain Text
  114. Duration : 1 h 36 min
  115. Bit rate : 55 b/s
  116. Frame rate : 0.213 FPS
  117. Count of elements : 1228
  118. Stream size : 38.8 KiB (0%)
  119. Language : German
  120. Default : No
  121. Forced : No

  122. Text #6
  123. ID : 8
  124. Format : UTF-8
  125. Codec ID : S_TEXT/UTF8
  126. Codec ID/Info : UTF-8 Plain Text
  127. Duration : 1 h 36 min
  128. Bit rate : 89 b/s
  129. Frame rate : 0.238 FPS
  130. Count of elements : 1371
  131. Stream size : 62.9 KiB (0%)
  132. Language : Greek
  133. Default : No
  134. Forced : No

  135. Text #7
  136. ID : 9
  137. Format : UTF-8
  138. Codec ID : S_TEXT/UTF8
  139. Codec ID/Info : UTF-8 Plain Text
  140. Duration : 1 h 30 min
  141. Bit rate : 63 b/s
  142. Frame rate : 0.256 FPS
  143. Count of elements : 1383
  144. Stream size : 42.2 KiB (0%)
  145. Language : English
  146. Default : No
  147. Forced : No

  148. Text #8
  149. ID : 10
  150. Format : UTF-8
  151. Codec ID : S_TEXT/UTF8
  152. Codec ID/Info : UTF-8 Plain Text
  153. Duration : 1 h 36 min
  154. Bit rate : 52 b/s
  155. Frame rate : 0.245 FPS
  156. Count of elements : 1415
  157. Stream size : 36.7 KiB (0%)
  158. Language : English
  159. Default : No
  160. Forced : No

  161. Text #9
  162. ID : 11
  163. Format : UTF-8
  164. Codec ID : S_TEXT/UTF8
  165. Codec ID/Info : UTF-8 Plain Text
  166. Duration : 1 h 36 min
  167. Bit rate : 67 b/s
  168. Frame rate : 0.270 FPS
  169. Count of elements : 1558
  170. Stream size : 47.5 KiB (0%)
  171. Title : SDH
  172. Language : English
  173. Default : No
  174. Forced : No

  175. Text #10
  176. ID : 12
  177. Format : UTF-8
  178. Codec ID : S_TEXT/UTF8
  179. Codec ID/Info : UTF-8 Plain Text
  180. Duration : 1 h 36 min
  181. Bit rate : 54 b/s
  182. Frame rate : 0.234 FPS
  183. Count of elements : 1347
  184. Stream size : 38.1 KiB (0%)
  185. Language : French
  186. Default : No
  187. Forced : No

  188. Text #11
  189. ID : 13
  190. Format : UTF-8
  191. Codec ID : S_TEXT/UTF8
  192. Codec ID/Info : UTF-8 Plain Text
  193. Duration : 1 h 36 min
  194. Bit rate : 80 b/s
  195. Frame rate : 0.239 FPS
  196. Count of elements : 1377
  197. Stream size : 56.6 KiB (0%)
  198. Language : Hebrew
  199. Default : No
  200. Forced : No

  201. Text #12
  202. ID : 14
  203. Format : UTF-8
  204. Codec ID : S_TEXT/UTF8
  205. Codec ID/Info : UTF-8 Plain Text
  206. Duration : 1 h 36 min
  207. Bit rate : 47 b/s
  208. Frame rate : 0.240 FPS
  209. Count of elements : 1384
  210. Stream size : 33.5 KiB (0%)
  211. Language : Croatian
  212. Default : No
  213. Forced : No

  214. Text #13
  215. ID : 15
  216. Format : UTF-8
  217. Codec ID : S_TEXT/UTF8
  218. Codec ID/Info : UTF-8 Plain Text
  219. Duration : 1 h 35 min
  220. Bit rate : 52 b/s
  221. Frame rate : 0.243 FPS
  222. Count of elements : 1389
  223. Stream size : 36.4 KiB (0%)
  224. Language : Hungarian
  225. Default : No
  226. Forced : No

  227. Text #14
  228. ID : 16
  229. Format : UTF-8
  230. Codec ID : S_TEXT/UTF8
  231. Codec ID/Info : UTF-8 Plain Text
  232. Duration : 1 h 36 min
  233. Bit rate : 51 b/s
  234. Frame rate : 0.238 FPS
  235. Count of elements : 1375
  236. Stream size : 36.5 KiB (0%)
  237. Language : Italian
  238. Default : No
  239. Forced : No

  240. Text #15
  241. ID : 17
  242. Format : UTF-8
  243. Codec ID : S_TEXT/UTF8
  244. Codec ID/Info : UTF-8 Plain Text
  245. Duration : 1 h 36 min
  246. Bit rate : 53 b/s
  247. Frame rate : 0.229 FPS
  248. Count of elements : 1319
  249. Stream size : 37.5 KiB (0%)
  250. Language : Dutch
  251. Default : No
  252. Forced : No

  253. Text #16
  254. ID : 18
  255. Format : UTF-8
  256. Codec ID : S_TEXT/UTF8
  257. Codec ID/Info : UTF-8 Plain Text
  258. Duration : 1 h 36 min
  259. Bit rate : 51 b/s
  260. Frame rate : 0.244 FPS
  261. Count of elements : 1405
  262. Stream size : 36.2 KiB (0%)
  263. Language : Polish
  264. Default : No
  265. Forced : No

  266. Text #17
  267. ID : 19
  268. Format : UTF-8
  269. Codec ID : S_TEXT/UTF8
  270. Codec ID/Info : UTF-8 Plain Text
  271. Duration : 1 h 36 min
  272. Bit rate : 50 b/s
  273. Frame rate : 0.243 FPS
  274. Count of elements : 1404
  275. Stream size : 35.9 KiB (0%)
  276. Title : Brazilian
  277. Language : Portuguese (BR)
  278. Default : No
  279. Forced : No

  280. Text #18
  281. ID : 20
  282. Format : UTF-8
  283. Codec ID : S_TEXT/UTF8
  284. Codec ID/Info : UTF-8 Plain Text
  285. Duration : 1 h 36 min
  286. Bit rate : 49 b/s
  287. Frame rate : 0.241 FPS
  288. Count of elements : 1388
  289. Stream size : 34.7 KiB (0%)
  290. Language : Portuguese (PT)
  291. Default : No
  292. Forced : No

  293. Text #19
  294. ID : 21
  295. Format : UTF-8
  296. Codec ID : S_TEXT/UTF8
  297. Codec ID/Info : UTF-8 Plain Text
  298. Duration : 1 h 31 min
  299. Bit rate : 62 b/s
  300. Frame rate : 0.213 FPS
  301. Count of elements : 1174
  302. Stream size : 41.8 KiB (0%)
  303. Language : Romanian
  304. Default : No
  305. Forced : No

  306. Text #20
  307. ID : 22
  308. Format : UTF-8
  309. Codec ID : S_TEXT/UTF8
  310. Codec ID/Info : UTF-8 Plain Text
  311. Duration : 1 h 36 min
  312. Bit rate : 53 b/s
  313. Frame rate : 0.210 FPS
  314. Count of elements : 1213
  315. Stream size : 38.0 KiB (0%)
  316. Language : Turkish
  317. Default : No
  318. Forced : No

  319. Text #21
  320. ID : 23
  321. Format : UTF-8
  322. Codec ID : S_TEXT/UTF8
  323. Codec ID/Info : UTF-8 Plain Text
  324. Duration : 1 h 36 min
  325. Bit rate : 83 b/s
  326. Frame rate : 0.241 FPS
  327. Count of elements : 1393
  328. Stream size : 58.7 KiB (0%)
  329. Language : Ukrainian
  330. Default : No
  331. Forced : No

  332. Menu
  333. 01:31:14.000 : en:End Credits
复制代码


炙爱恒情4K Burning.Patience.2022.SPANISH.2160p.NF.WEB-DL.x265.10bit.HDR.DDP5.1.Atmos-4K电影下载

炙爱恒情4K Burning.Patience.2022.SPANISH.2160p.NF.WEB-DL.x265.10bit.HDR.DDP5.1.Atmos【HDR 13.46 GB】
磁力链下载:

magnet:?xt=urn:btih:8721997f93908464fc8ac293826514c06a7afe68&dn

精彩评论5

kanchow 发表于 2023-4-10 19:56:57
好片,感谢分享。
回复 支持 反对

使用道具 举报

changan01 发表于 2023-4-11 17:00:02
不错,支持一下!!!
回复 支持 反对

使用道具 举报

面积哈啊 发表于 2023-6-4 13:58:43
感谢分享
回复 支持 反对

使用道具 举报

shine288 发表于 2023-6-13 10:15:58
感谢楼主分享
回复 支持 反对

使用道具 举报

您需要登录后才可以回帖 登录 | 立即注册

本版积分规则

推荐影视全站推荐影视下载
  • 9.4

    前天 20:35/4K(3840x2160)

    泰坦尼克号4K

    Disc Title: TITANIC_1997_UHD Disc Size: 92,191,804,773 bytes Protection: AACS2 Playlist: 00800.MPLS Size: 90,821,492,736 bytes Length: 3:14:44.631 Total Bitrate: 62.18 Mbps Video: MPEG-H HEVC Video / 46029 kbps / 2160p / 23.976 fps / 16:9 / Main 10 @ Level 5.1 @ High / 4:2:0 / 10 bits / 1000nits / HDR10 / BT.2020 Video: * MPEG-H HEVC Video / 3768 kbps / 1080p / 23.976 fps / 16:9 / Main 10 @ Level 5.1 @ High / 4:2:0 / 10 bits / 1000nits / Dolby Vision FEL / BT.2020 Audio: English / Dolby TrueHD/Atmos Audio / 7.1+13 objects / 48 kHz / 2710 kbps / 16-bit (AC3 Core: 5.1 / 48 kHz / 640 kbps) Audio: English / DTS-HD Master Audio / 2.0 / 48 kHz / 1655 kbps / 24-bit (DTS Core: 2.0 / 48 kHz / 768 kbps / 24-bit) Audio: English / Dolby Digital Audio / 5.1 / 48 kHz / 640 kbps Audio: French / Dolby Digital Audio / 5.1 / 48 kHz / 640 kbps Audio: Spanish / Dolby Digital Audio / 5.1 / 48 kHz / 640 kbps Audio: English / Dolby Digital Audio / 2.0 / 48 kHz / 224 kbps Audio: English / Dolby Digital Audio / 2.0 / 48 kHz / 224 kbps Audio: English / Dolby Digital Audio / 2.0 / 48 kHz / 224 kbps Subtitle: English / 39.971 kbps Subtitle: French / 24.097 kbps Subtitle: Spanish / 27.616 kbps Subtitle: English / 79.708 kbps Subtitle: French / 70.303 kbps Subtitle: Spanish / 63.596 kbps Subtitle: English / 84.336 kbps Subtitle: French / 71.503 kbps Subtitle: Spanish / 69.213 kbps Subtitle: English / 89.868 kbps Subtitle: French / 72.754 kbps Subtitle: Spanish / 67.387 kbps Subtitle: English / 0.029 kbps Subtitle: French / 0.044 kbps Subtitle: Spanish / 0.066 kbps Subtitle: English / 3.842 kbps

    泰坦尼克号4K(90年代)
    9.4
    ①网盘资源信息:
    剧情简介:1912年4月10日,号称 “世界工业史上的奇迹”的豪华客轮泰坦尼克号开始了自己的处女航,从英国的南安普顿出发驶往美国纽约。富家少女罗丝(凯特•温丝莱特)与母亲及未婚夫卡尔坐上了头等舱;另一边,放荡不羁的少年画家杰克(莱昂纳多·迪卡普里奥)也在码头的一场赌博中赢得了下等舱的船票。   罗丝厌倦了上流社会虚伪的生活,不愿嫁给卡尔,打算投海自尽,被杰克救起。很快,美丽活泼的罗丝与英俊开朗的杰克相爱,杰克带罗丝参加下等舱的舞会、为她画像,二人的感情逐渐升温。   1912年4月14日,星期天晚上,一个风平浪静的夜晚。泰坦尼克号撞上了冰山,“永不沉没的”泰坦尼克号面临沉船的命运,罗丝和杰克刚萌芽的爱情也将经历生死的考验。
    6.6

    5 天前/4K(3840x2160)

    93国际列车大劫案:莫斯科行动4K

    General............: Moscow.Mission.2023.2160p.HQ.WEB-DL.H265.DDP5.1-4KSJ Duration...........: 02:08:24.192 (HH:MM:SS:FF) RELEASE.SIZE.......: 18.5 GiB VIDEO.CODEC........: HEVC Main 10@L5.1@Main FRAMERATE..........: 24.000 fps VIDEO.BITRATE......: 19.8 Mb/s RESOLUTION.........: 3840 x 1624 ASPECT.RATIO.......: 2.35:1 Audio..............: E-AC-3 6 channels 256 kb/s Chinese Mandarin [DDP5.1] Audio..............: E-AC-3 2 channels 256 kb/s Chinese Mandarin [DDP2.0] Audio..............: AAC 2 channels 256 kb/s Chinese Mandarin [AAC2.0]

    ①网盘资源信息:
    剧情简介:20世纪90年代初,东西方冷战以苏联解体落下帷幕。新建立的俄罗斯承前朝之弊,经济全面崩溃。而产业结构极度不平衡,又导致该国轻工业产品处于极度匮乏的局面。值此纷乱之际,改革开放之初的中国,一群头脑灵光的国人摇身一变化作“国际倒爷”。他们乘坐从北京开往莫斯科的K3次国际专列 ,带着中国生产的商品开启了淘金之旅。然而,对于他们来说,这很有可能是一场死亡之旅。以苗青山(黄轩 饰)为首的悍匪集团同样登上这趟列车,对乘客实施了惨无人道的抢劫和强暴,气焰极度嚣张。中国警察崔振海(张涵予 饰)临危受命,乔装打扮带领公安小队登上刀光血影的K3次列车……   影片根据中国第一桩跨境追捕真实案件改编。

    4 天前/4K(3840x2160)

    告密者4K

    Disc Title: New York Confidential Disc Label: Confidential.Informant.2023.2160p.UHD.Blu-ray.DoVi.HDR10.HEVC.DTS-HD.MA.5.1-4K世界 Disc Size: 62,961,111,435 bytes Protection: AACS2 Playlist: 00000.MPLS Size: 60,643,126,656 bytes Length: 1:28:17.375 Total Bitrate: 91.58 Mbps Video: MPEG-H HEVC Video / 79930 kbps / 2160p / 23.976 fps / 16:9 / Main 10 @ Level 5.1 @ High / 10 bits / HDR10 / BT.2020 * Video: MPEG-H HEVC Video / 67 kbps / 1080p / 23.976 fps / 16:9 / Main 10 @ Level 5.1 @ High / 10 bits / Dolby Vision / BT.2020 Audio: German / DTS-HD Master Audio / 5.1 / 48 kHz / 3624 kbps / 24-bit (DTS Core: 5.1 / 48 kHz / 1509 kbps / 24-bit) Audio: English / DTS-HD Master Audio / 5.1 / 48 kHz / 3567 kbps / 24-bit (DTS Core: 5.1 / 48 kHz / 1509 kbps / 24-bit) Subtitle: German / 0.901 kbps Subtitle: German / 35.070 kbps

    告密者4K(2023年)
    ①网盘资源信息:
    剧情简介: A police detective makes a deal with an informant to get killed in the line of duty. He is dying of cancer and wants his family to take care of his bureau benefits.
    4.7

    4 天前/4K(3840x2160)

    同情恶魔4k

    Disc Title: Sympathy for the Devil Disc Label: Sympathy.for.the.Devil.2023.2160p.USA.UHD.Blu-ray.HEVC.DTS.HD.MA.5.1-4KSJ Disc Size: 64,928,178,902 bytes Protection: AACS2 Playlist: 00000.MPLS Size: 63,622,369,344 bytes Length: 1:30:18.329 Total Bitrate: 93.94 Mbps Video: MPEG-H HEVC Video / 83995 kbps / 2160p / 23.976 fps / 16:9 / Main 10 @ Level 5.1 @ High / 10 bits / BT.709 Audio: English / DTS-HD Master Audio / 5.1 / 48 kHz / 3433 kbps / 24-bit (DTS Core: 5.1 / 48 kHz / 1509 kbps / 24-bit) Audio: English / DTS-HD Master Audio / 2.0 / 48 kHz / 2013 kbps / 24-bit (DTS Core: 2.0 / 48 kHz / 1509 kbps / 24-bit) Subtitle: English / 22.778 kbps Subtitle: French / 17.304 kbps Subtitle: Spanish / 16.600 kbps

    同情恶魔4k(2023年)
    4.7
    ①网盘资源信息:
    剧情简介: 尼古拉斯·凯奇和乔尔·金纳曼将主演心理惊悚片《同情恶魔》(Sympathy for the Devil),尤瓦尔·阿德勒(《生死狙击》《女特工》)执导,卢克·帕拉迪斯编剧,正在拉斯维加斯拍摄中。   讲述一名司机(金纳曼)在被迫为一名神秘男子乘客(凯奇)开车后,发现自己陷入了一场高风险的猫鼠游戏,开启惊险刺激的旅程。

    6 天前/4K(3840x2160)

    中国游戏纪事4K

    文件名: 中国游戏纪事.Zhong.Guo.You.Xi.Ji.Shi.S01E01.2023.2160p.WEB-DL.H265.10bit.AAC-4KSJ.mkv 日 期: 2023-11-14 体 积: 4.58 GiB 时 长: 32min 44s 帧 率: 24.922 fps 分辨率: 3840 x 2160 (16:9) 视 频: 19.8 Mbps 音 频: Mandarin AAC 2.0 @ 256 Kbps (国语)

    ①网盘资源信息:
    剧情简介: 纪录片《中国游戏纪事》真实记录了中国游戏三十多年的发展历程,展现游戏艺术形式的文化传播传承的特有功能和内在价值,并通过价值观积极向上、丰富饱满的影像内容,引导广大受众树立科学的文化消费观,激发游戏企业的创新创造精神,催生更多健康向上的精品佳作,涌现更多富有社会责任感的优秀企业。本片对宣传推广游戏产业的正向价值,推动社会全面理性地看待游戏行业具有重要意义。   中国音数协第一副理事长、游戏工委主任委员张毅君介绍了本片拍摄的相关情况。张毅君表示:筹拍这样一部专题纪录片的初衷是为数以万计的市场主体和优秀作品以及数以千万计的消费者还原史实和真相。是用追忆历史、追寻艺术的真挚情怀,把游戏产业从一无所有到走向繁荣的三十年历程中,涌现出的具有历史意义的人、情、物、事讲述出来。纪录片的内容不仅要抒发情怀,更要衔接地气,要始终聚焦一代代基层创业者和游戏人的初心使命,展现其责任担当,反映其艰苦探索,描摹其心路历程。   根据拍摄计划,本片将在2022年上半年进入后两集拍摄及后期制作并进行播出。
2015-2023 www.4ksj.com  4K世界 |网站地图
京ICP证160991号 京公网安备11010802015683号 Copyright ©2023 All Rights Reserved.
    *本站提供的所有电影资源均来自互联网,仅限交流使用,请在下载后的2小时内删除,所有版权皆属原公司所有,如果认为本站侵犯了您的版权,请告知,我们会立即删除。