注册/登陆
游客您好
第三方账号登陆
隔窗恋爱4K hrough.My.Window.2022.SPANISH.2160p电影下载
[复制链接]
2023-04-10 发布
  • 黄金会员
  • 0
  • 1455
青衫烟雨 发表于 2023-4-10 16:34:45 |阅读模式 打印 上一主题 下一主题

隔窗恋爱4K
2022年(豆瓣:6.0)
  • 电影声道:5.1声道 
  • 电影语言:中文简体   中文繁体   英文字幕   
  • 画质标准 HDR 
  • 资源版本  
  • 帧数/FPS:23.976 Fps
    发布排行: 第部4K原盘
    导  演:马塞尔·弗雷斯
    制片国家:美国 
    电影分类:剧情 喜剧 
    分 辨 率:4K(3840x2160)
简介拉奎尔疯狂且不可救药地爱上了迷人而神秘的邻居阿瑞斯。虽然她一直默默地关注着阿瑞斯,但令她沮丧的是,他们却从来没有说过一句话。但是拉奎尔的目标很明确:让阿瑞斯爱上自己。然而,她不是一个傻白甜女孩,她并没想过为此倾尽所有,更不会迷失自我······
我在窗前恋上你(港) / 心动隔扇窗 / Through My Window/隔窗恋爱4K Through.My.Window.2022.SPANISH.2160p.NF.WEB-DL.x265.10bit.HDR.DDP5.1-4K电影资源信息
  1. Video
  2. ID : 1
  3. Format : HEVC
  4. Format/Info : High Efficiency Video Coding
  5. Format profile : Main 10@L5@Main
  6. HDR format : Dolby Vision, Version 1.0, dvhe.08.07, BL+RPU, HDR10 compatible / SMPTE ST 2086, HDR10 compatible
  7. Codec ID : V_MPEGH/ISO/HEVC
  8. Duration : 1 h 52 min
  9. Bit rate : 10.6 Mb/s
  10. Width : 3 840 pixels
  11. Height : 2 160 pixels
  12. Display aspect ratio : 16:9
  13. Frame rate mode : Constant
  14. Frame rate : 25.000 FPS
  15. Color space : YUV
  16. Chroma subsampling : 4:2:0 (Type 2)
  17. Bit depth : 10 bits
  18. Bits/(Pixel*Frame) : 0.051
  19. Stream size : 8.28 GiB (89%)
  20. Default : Yes
  21. Forced : No
  22. Color range : Limited
  23. Color primaries : BT.2020
  24. Transfer characteristics : PQ
  25. Matrix coefficients : BT.2020 non-constant
  26. Mastering display color primaries : Display P3
  27. Mastering display luminance : min: 0.0001 cd/m2, max: 1000 cd/m2
  28. Maximum Content Light Level : 890 cd/m2
  29. Maximum Frame-Average Light Level : 191 cd/m2

  30. Audio #1
  31. ID : 2
  32. Format : E-AC-3
  33. Format/Info : Enhanced AC-3
  34. Commercial name : Dolby Digital Plus
  35. Codec ID : A_EAC3
  36. Duration : 1 h 53 min
  37. Bit rate mode : Constant
  38. Bit rate : 640 kb/s
  39. Channel(s) : 6 channels
  40. Channel layout : L R C LFE Ls Rs
  41. Sampling rate : 48.0 kHz
  42. Frame rate : 31.250 FPS (1536 SPF)
  43. Compression mode : Lossy
  44. Stream size : 520 MiB (5%)
  45. Title : Spanish
  46. Language : Spanish
  47. Service kind : Complete Main
  48. Default : Yes
  49. Forced : No

  50. Audio #2
  51. ID : 3
  52. Format : E-AC-3
  53. Format/Info : Enhanced AC-3
  54. Commercial name : Dolby Digital Plus
  55. Codec ID : A_EAC3
  56. Duration : 1 h 53 min
  57. Bit rate mode : Constant
  58. Bit rate : 640 kb/s
  59. Channel(s) : 6 channels
  60. Channel layout : L R C LFE Ls Rs
  61. Sampling rate : 48.0 kHz
  62. Frame rate : 31.250 FPS (1536 SPF)
  63. Compression mode : Lossy
  64. Stream size : 520 MiB (5%)
  65. Title : English
  66. Language : English
  67. Service kind : Complete Main
  68. Default : No
  69. Forced : No

  70. Text #1
  71. ID : 4
  72. Format : UTF-8
  73. Codec ID : S_TEXT/UTF8
  74. Codec ID/Info : UTF-8 Plain Text
  75. Duration : 1 h 48 min
  76. Bit rate : 1 b/s
  77. Frame rate : 0.007 FPS
  78. Count of elements : 47
  79. Stream size : 1.10 KiB (0%)
  80. Title : English (Forced)
  81. Language : English
  82. Default : No
  83. Forced : Yes


  84. Text #43
  85. ID : 46
  86. Format : UTF-8
  87. Codec ID : S_TEXT/UTF8
  88. Codec ID/Info : UTF-8 Plain Text
  89. Duration : 1 h 52 min
  90. Bit rate : 46 b/s
  91. Frame rate : 0.169 FPS
  92. Count of elements : 1139
  93. Stream size : 37.9 KiB (0%)
  94. Title : Simplified, Chinese
  95. Language : Chinese
  96. Default : No
  97. Forced : No

  98. Text #44
  99. ID : 47
  100. Format : UTF-8
  101. Codec ID : S_TEXT/UTF8
  102. Codec ID/Info : UTF-8 Plain Text
  103. Duration : 1 h 52 min
  104. Bit rate : 41 b/s
  105. Frame rate : 0.167 FPS
  106. Count of elements : 1125
  107. Stream size : 34.0 KiB (0%)
  108. Title : Traditional, Chinese
  109. Language : Chinese
  110. Default : No
  111. Forced : No

  112. Menu
  113. 00:00:00.000 : en:Part 01
  114. 01:49:33.450 : en:Credits
复制代码

我在窗前恋上你(港) / 心动隔扇窗 / Through My Window/隔窗恋爱4K Through.My.Window.2022.SPANISH.2160p.NF.WEB-DL.x265.10bit.HDR.DDP5.1-4K电影资源下载

隔窗恋爱4K Through.My.Window.2022.SPANISH.2160p.NF.WEB-DL.x265.10bit.HDR.DDP5.1【简繁中字】【HDR 9.30 GB】
磁力链下载:

magnet:?xt=urn:btih:46b17737a913c635af0eabff7bc63d248dfa8446&dn

隔窗恋爱4K Through.My.Window.2022.SPANISH.2160p.NF.WEB-DL.x265.10bit.SDR.DDP5.1【简繁中字】【SDR 15.09 GB】
磁力链下载:

magnet:?xt=urn:btih:c28618f13ba3e5a720f8cdd7eee5b5c5dd6f5712&dn

精彩评论11

pf_pf_pf_pf 发表于 2023-4-10 20:32:03
感谢楼主发布
回复 支持 反对

使用道具 举报

58242219 发表于 2023-4-10 21:26:47
回复 支持 反对

使用道具 举报

lam05461371 发表于 2023-4-10 21:56:33
感谢楼主分享资源。
回复 支持 反对

使用道具 举报

流浪的球 发表于 2023-4-11 03:23:24
谢谢分享
回复 支持 反对

使用道具 举报

changan01 发表于 2023-4-11 15:04:36
感谢分享!谢谢!
回复 支持 反对

使用道具 举报

robin3502 发表于 2023-4-13 10:13:39
没有字幕啊!@
回复 支持 1 反对 0

使用道具 举报

zhangxwei74 发表于 2023-4-15 12:40:06
第一次见60帧的国产电影
回复 支持 反对

使用道具 举报

zt041512 发表于 2023-4-16 07:28:26
回复 支持 反对

使用道具 举报

xxxwakinxxx 发表于 2023-5-18 21:53:37
第一次见60帧的国产电影
回复 支持 反对

使用道具 举报

shine288 发表于 2023-6-13 10:12:39
感谢楼主分享
回复 支持 反对

使用道具 举报

您需要登录后才可以回帖 登录 | 立即注册

本版积分规则

推荐影视全站推荐影视下载
  • 8.0

    昨天 10:00/4K(3840x2160)

    兰戈4K

    DISC INFO: Disc Title: Rango.2011.UHD.BluRay.2160p.HEVC.DTS-HD.MA5.1-4KSJ Disc Size: 64,588,791,576 bytes Protection: AACS2 Extras: Ultra HD, BD-Java BDInfo: 0.7.6.1 (compatible layout created by DVDFab 13 13.0.0.2) PLAYLIST REPORT: Name: 00100.MPLS Length: 1:47:14.678 (h:m:s.ms) Size: 64,063,211,520 bytes Total Bitrate: 79.65 Mbps (*) Indicates included stream hidden by this playlist. VIDEO: Codec Bitrate Description ----- ------- ----------- MPEG-H HEVC Video 55198 kbps 2160p / 23.976 fps / 16:9 / Main 10 @ Level 5.1 @ High / 4:2:0 / 10 bits / 1000nits / HDR10 / BT.2020 *MPEG-H HEVC Video 13874 kbps (20.09%) 1080p / 23.976 fps / 16:9 / Main 10 @ Level 5.1 @ High / 4:2:0 / 10 bits / 1000nits / Dolby Vision FEL / BT.2020 AUDIO: Codec Language Bitrate Description ----- -------- ------- ----------- DTS-HD Master Audio English 3920 kbps 5.1 / 48 kHz / 3920 kbps / 24-bit (DTS Core: 5.1 / 48 kHz / 1509 kbps / 24-bit) Dolby Digital Audio German 640 kbps 5.1 / 48 kHz / 640 kbps Dolby Digital Audio French 640 kbps 5.1 / 48 kHz / 640 kbps Dolby Digital Audio Italian 640 kbps 5.1 / 48 kHz / 640 kbps Dolby Digital Audio Japanese 640 kbps 5.1 / 48 kHz / 640 kbps SUBTITLES: Codec Language Bitrate Description ----- -------- ------- ----------- Presentation Graphics English 34.218 kbps Presentation Graphics English 41.03 kbps Presentation Graphics German 35.198 kbps Presentation Graphics Spanish 32.485 kbps Presentation Graphics French 28.143 kbps Presentation Graphics Italian 32.49 kbps Presentation Graphics Japanese 20.807 kbps Presentation Graphics German 0.121 kbps Presentation Graphics French 0.204 kbps Presentation Graphics Italian 0.136 kbps Presentation Graphics Japanese 0.185 kbps

    兰戈4K(00年代)
    8.0
    ①网盘资源信息:
    剧情简介:兰戈(约翰尼·德普 Johnny Depp 配音)是一只干瘦、翠绿的蜥蜴,他住在鱼缸里,蓝天白云椰子树的假相让他倍感无聊,这个酷爱幻想和表演的家伙只得在头脑中编出属于自己的英雄剧。可就在某天,一个意外将他驱赶出惯常的方寸空间,兰戈莫名其妙来到了西部荒原的公路上。在沙漠中穿行的时候,兰戈遭到猎鹰的袭击。经过一番周折,他来到了名为黄沙(Dirt)的小镇,这里住着许多昆虫和动物,破败不堪,宛若死城。兰戈意外干掉了凶恶的猎鹰,由此被镇上的居民视为英雄,他也乐于享受这种荣誉,可是英雄毕竟不好当……
    6.5

    前天 06:00/4K(3840x2160)

    功夫熊猫4 4k

    DISC INFO: Disc Title: Kung.Fu.Panda.4.2024.2160p.UHD.Blu-ray.DoVi.HDR10.HEVC.Atmos.TrueHD7.1-DiY@4KSJ Disc Size: 79,086,865,447 bytes Protection: AACS2 Extras: Ultra HD, BD-Java BDInfo: 0.7.6.1 (compatible layout created by DVDFab 12.1.1.5) PLAYLIST REPORT: Name: 00040.MPLS Length: 1:33:38.613 (h:m:s.ms) Size: 51,146,901,504 bytes Total Bitrate: 72.82 Mbps (*) Indicates included stream hidden by this playlist. VIDEO: Codec Bitrate Description ----- ------- ----------- MPEG-H HEVC Video 54973 kbps 2160p / 23.976 fps / 16:9 / Main 10 @ Level 5.1 @ High / 4:2:0 / 10 bits / 4000nits / HDR10 / BT.2020 * MPEG-H HEVC Video 7134 kbps (11.49%) 1080p / 23.976 fps / 16:9 / Main 10 @ Level 5.1 @ High / 4:2:0 / 10 bits / 4000nits / Dolby Vision FEL / BT.2020 AUDIO: Codec Language Bitrate Description ----- -------- ------- ----------- Dolby TrueHD/Atmos Audio English 3541 kbps 7.1+13 objects / 48 kHz / 3093 kbps / 16-bit (AC3 Core: 5.1 / 48 kHz / 448 kbps) Dolby Digital Plus Audio Spanish 768 kbps 7.1 / 48 kHz / 768 kbps (AC3 Core: 5.1 / 48 kHz / 448 kbps ( Core: 5.1 / 48 kHz / 448 kbps)) Dolby Digital Plus Audio French 768 kbps 7.1 / 48 kHz / 768 kbps (AC3 Core: 5.1-EX / 48 kHz / 448 kbps ( Core: 5.1 / 48 kHz / 448 kbps)) Dolby Digital Audio English 192 kbps 2.0 / 48 kHz / 192 kbps Dolby Digital Audio Chinese 384 kbps 5.1 / 48 kHz / 384 kbps 台版国语配音 Dolby Digital Audio Chinese 384 kbps 2.0 / 48 kHz / 384 kbps 上译国语配音 SUBTITLES: Codec Language Bitrate Description ----- -------- ------- ----------- Presentation Graphics English 52.043 kbps Presentation Graphics Spanish 42.009 kbps Presentation Graphics French 41.008 kbps Presentation Graphics Chinese 32.737 kbps 画面内官译简体中字 Presentation Graphics Chinese 33.792 kbps 画面内官译繁体中字 Presentation Graphics Chinese 34.835 kbps 黑边内上译国配简中 Presentation Graphics Chinese 35.501 kbps 黑边内上译国配繁中 Presentation Graphics Chinese 55.120 kbps 黑边内上译国配简英 Presentation Graphics Chinese 55.791 kbps 黑边内上译国配繁英

    功夫熊猫4 4k(2024年)
    6.5
    ①网盘资源信息:
    剧情简介:神龙大侠阿宝(杰克·布莱克 Jack Black 配音)再度归来,要被师父(达斯汀·霍夫曼 Dustin Hoffman 配音)强行进阶修行。系列全新最强反派魅影妖后(维奥拉·戴维斯 Viola Davis 配音)登场,神秘莫测的她可以幻化成每一个阿宝的昔日宿敌。此次阿宝又结识了小真(奥卡菲娜 Awkwafina 配音)等新伙伴,并将一同开启这场冒险旅程。

    6 天前/4K(3840x2160)

    美国内战4k

    File Name............: Civil.War.2024.2160p.iTunes.WEB-DL.DDP.5.1.Atmos.H.265-4ksj File Size............: 15.90 GiB Duration.............: 01:48:45.268 (HH:MM:SS.FFF) Video Bit Rate.......: 20,147 kbps Video Codec..........: HEVC,Main 10@L5 Frame Rate...........: 23.976 fps Resolution...........: 3836 x 2072 Audio#01.............: English (US) 768 kbps CBR 6channels E-AC-3 (ATMOS) Subtitle#01..........: Spanish (Latin America) Latin America

    美国内战4k(2024年)
    ①网盘资源信息:
    剧情简介: 影片讲述美国在不久的将来,爆发了影响全国的内战。在资深战地摄影师李·史密斯(克斯汀·邓斯特 Kirsten Dunst 饰)的带领下,记者们组成了一支强大的专业团队,穿越战线并设法生存下来。他们驱车前往华盛顿特区,希望在总统向名为 "WF"的军事力量投降之前采访总统。

    6 天前/4K(3840x2160)

    异星战境4k

    Video ID : 1 Format : HEVC Format/Info : High Efficiency Video Coding Format profile : Main 10@L5@Main Codec ID : V_MPEGH/ISO/HEVC Duration : 2 h 0 min Bit rate : 10.8 Mb/s Width : 3 840 pixels Height : 2 160 pixels Display aspect ratio : 16:9 Frame rate mode : Constant Frame rate : 24.000 FPS Color space : YUV Chroma subsampling : 4:2:0 Bit depth : 10 bits Bits/(Pixel*Frame) : 0.054 Stream size : 9.02 GiB (86%) Title : BEN.THE.MEN Language : English Default : Yes Forced : Yes Color range : Limited Color primaries : BT.709 Transfer characteristics : BT.709 Matrix coefficients : BT.709 Audio #1 ID : 2 Format : E-AC-3 JOC Format/Info : Enhanced AC-3 with Joint Object Coding Commercial name : Dolby Digital Plus with Dolby Atmos Codec ID : A_EAC3 Duration : 2 h 0 min Bit rate mode : Constant Bit rate : 768 kb/s Channel(s) : 6 channels Channel layout : L R C LFE Ls Rs Sampling rate : 48.0 kHz Frame rate : 31.250 FPS (1536 SPF) Compression mode : Lossy Stream size : 660 MiB (6%) Title : BTM DDP5.1 Atmos Language : English Service kind : Complete Main Default : Yes Forced : Yes Complexity index : 16 Number of dynamic objects : 15 Bed channel count : 1 channel Bed channel configuration : LFE Dialog Normalization : -26 dB compr : -0.28 dB dialnorm_Average : -26 dB dialnorm_Minimum : -26 dB dialnorm_Maximum : -26 dB Audio #2 ID : 3 Format : E-AC-3 Format/Info : Enhanced AC-3 Commercial name : Dolby Digital Plus Codec ID : A_EAC3 Duration : 2 h 0 min Bit rate mode : Constant Bit rate : 960 kb/s Channel(s) : 6 channels Channel layout : L R C LFE Ls Rs Sampling rate : 48.0 kHz Frame rate : 31.250 FPS (1536 SPF) Compression mode : Lossy Stream size : 825 MiB (8%) Title : BTM DDP5.1 Language : English Service kind : Complete Main Default : No Forced : No Dialog Normalization : -31 dB dialnorm_Average : -31 dB dialnorm_Minimum : -31 dB dialnorm_Maximum : -31 dB

    异星战境4k(2024年)
    ①网盘资源信息:
    剧情简介:在未来世界,军事情报分析师Atlas Shepherd(詹妮弗·洛佩兹 Jennifer Lopez 饰),对AI有着深切的不信任感。她加入了一个任务,试图捕捉一个叛逃的机器人,而这个机器人有着神秘的过去。不过,当计划失败时,她唯一拯救人类未来免受AI侵害的希望就是去相信它。
    6.9

    6 天前/4K(3840x2160)

    孤注一掷4k

    Video ID : 1 Format : AVC Format/Info : Advanced Video Codec Format profile : Main@L5.1 Format settings : CABAC / 4 Ref Frames Format settings, CABAC : Yes Format settings, Reference frames : 4 frames Codec ID : avc1 Codec ID/Info : Advanced Video Coding Duration : 2 h 9 min Bit rate mode : Variable Bit rate : 21.5 Mb/s Maximum bit rate : 120 Mb/s Width : 3 840 pixels Height : 2 160 pixels Display aspect ratio : 16:9 Frame rate mode : Variable Frame rate : 25.000 FPS Minimum frame rate : 17.158 FPS Maximum frame rate : 25.000 FPS Color space : YUV Chroma subsampling : 4:2:0 Bit depth : 8 bits Scan type : Progressive Bits/(Pixel*Frame) : 0.104 Stream size : 19.5 GiB (100%) Color range : Limited Color primaries : BT.709 Transfer characteristics : BT.709 Matrix coefficients : BT.709 Codec configuration box : avcC Audio ID : 2 Format : AAC LC Format/Info : Advanced Audio Codec Low Complexity Codec ID : mp4a-40-2 Duration : 2 h 9 min Bit rate mode : Constant Bit rate : 64.0 kb/s Channel(s) : 2 channels Channel layout : L R Sampling rate : 44.1 kHz Frame rate : 43.066 FPS (1024 SPF) Compression mode : Lossy Stream size : 59.5 MiB (0%) Default : Yes Alternate group : 1

    孤注一掷4k(2023年)
    6.9
    ①网盘资源信息:
    剧情简介:南亚某国,由于当地政府监管不力以及有意纵容,诈骗产业极其昌盛,炒股、挖币、网游、电商、博彩等,各种手段层出不穷,花样百出。某个科技产业园内,诈骗团伙头目陆经理(王传君 饰)张狂傲慢,用诡计和暴力统治着这个血泪王国。程序员潘生(张艺兴 饰)离开之前的公司,根据高薪招聘启示 走入了陆经理设下的圈套,成为一名利用网络诈骗的狗推。因为羡慕闺蜜的生活,模特梁安娜(金晨 饰)也飞到异国他乡寻找机会,结果护照被没收,成为陆经理手下利用美色诈骗的工具。进入人间炼狱,仿佛再也见不到活着出去的希望……   电影取材自上万起真实诈骗案例。


2015-2023 www.4ksj.com  4K世界 |网站地图
京ICP证160991号 京公网安备11010802015683号 Copyright ©2023 All Rights Reserved.
    *本站提供的所有电影资源均来自互联网,仅限交流使用,请在下载后的2小时内删除,所有版权皆属原公司所有,如果认为本站侵犯了您的版权,请告知,我们会立即删除。