注册/登陆
游客您好
第三方账号登陆

In.Broad.Daylight.The.Narvarte.Case4K 2022 2160p电影
[复制链接]
2023-04-10 发布
  • 4K进阶玩家
  • 20
  • 1131
青衫烟雨 发表于 2023-4-10 16:55:14 |阅读模式 打印 上一主题 下一主题
A plena luz: El caso Narvarte
2023年(豆瓣:0)
  • 电影声道:5.1声道 
  • 音质编码:Dolby Digital Plus Audio 
  • 画质标准 HDR 
  • 帧数/FPS:23.976 Fps
    资源版本 DIY简繁字幕 
    发布排行:第 部4K原盘
    导  演:阿尔韦托·阿尔瑙特·埃斯特拉达
    制片国家:美国 
    电影分类:犯罪 纪录片 
    分 辨 率:4K(3840x2160)
    电影语言:中文简体   中文繁体   原版字幕   
简介这部纪录片揭示了 2015 年墨西哥城纳瓦特街区五人遇害案件的调查过程涉嫌腐败的证据。
  • 电影下载
  • 资源INFO
  • 下载说明

  • 网盘下载Cloud storage / Cloud disk
    网盘①


    提取码①
    无链接, 或无权限
    网盘②


    访问码②
    中文字幕


    全球第 “” 部4K UHD蓝光原盘资源(从4K蓝光光盘中提取的数字音频、视频、导航等文件)


    BT种子 / 磁力链下载
  • 电影信息INFO
  • 下载方法
    115网盘链接:
    使用115浏览器打开链接、输入访问码、右上角点击下载即可,每秒2MB速度(无需开通会员)看详细教程

    BT种子下载:
    使用BT下载软件打开本站下载的BT种子文件、选择存储目录、点击确认即可。
    BT下载软件:qBittorrent(推荐)、uTorrent、FDM、比特精灵、BitTorrent

    磁力链下载:
    将磁力链复制到BT下载软件中、选择存储目录、点击确认即可


    多个种子/电影版本区别
    蓝光原盘(BDMV/ISO)
    俗称4K蓝光原盘,也就是从4K UHD蓝光碟中提取出来的源文件,由多个m2ts文件组成,与正版盘完全一致,且包含了光盘所有内容 (影片花絮、字幕、导航菜单、多语言多音轨、HDR 信息)等等,文件体积大,一部电影约有60GB+。此版本资源一般以「BDMV 文件夹」或「BDISO」 (iso) 格式发布;该版本可以用刻录机成带导航的光盘效果。

    DIY蓝光原盘(BDMV/ISO)
    经资源制作组基于蓝光原盘BDMV版本进行第二次DIY的版本,将片头AE特效、画面HDR调色、封装国语音轨、封装中文简体/繁体/英文等多语言字幕,更精彩的是是特效字幕(将电影画面中某些细节翻译成中文字幕)。

    蓝光BD-REMUX
    俗称REMUX,可以视为「音画质无损的精简版」"4K原盘",它其实就是将原盘里多余的一些音轨、花絮、菜单、字幕等东西移除或精简,仅保留主要的视频、主要音轨和部分语言字幕,然后再封装成「单个文件」的 .mkv 格式而来,其音质画质与BDMV蓝光原盘一致,但文件体积上能大幅缩减且成单个文件,在电脑上播放/管理/电视播放/播放器播放和分享起来也更方便。适合追求原盘音画质、不重视花絮周边内容、又希望稍微节省点硬盘空间的朋友。

    WEB-DL/WEBRip/流媒体版本
    WEB-DL 或 WEBRip 格式的影片主要来自 、Amazon Prime Video、Netflix、Hulu、YouTube 等「在线网络高清片源」。尽管这些服务提供了4K分辨率 (部分含 HDR) 的片源,但它们为了在线观看的流畅性,都会将视频画质进行较大幅度「有损压缩」。 WEB-DL 是 Web Download 的意思,指通过技术手段「直接下载」回来的在线视频 WEBRip 很多时候则是通过"屏幕转录"等方式二次录制,会造成多一次的画质损失。

    本站4K电影版块资源99%是真4K,都是从UHD蓝光碟片中提取而来!本站未发布的4K资源,全网都没有(除非假4K),所以发帖求资源也没用。

    下载速度慢怎么办
    1、正常情况使用《UTorrent》跟着网站发布资源节奏下载速度很快,可以达到宽带最大速度(电信)
    2、推荐使用《115网盘》下载速度又快又稳定,请勿使用迅雷下载;
    3、下载慢是有多方面原因,即依赖种子的热度、也要求是电信宽带(非移动/联通),同时选择对的下载软件和软件设置方法。
    4、使用BT协议下载没有速度,请更新《Trackers服务器》能够增加在线用户(越多越好),该方法使用《UTorrent》下载效果显著。
    更多下载问题参考: 4K电影下载指南>>



A plena luz: El caso Narvarte/In.Broad.Daylight.The.Narvarte.Case4K 2022.SPANISH.2160p.NF.WEB-DL.x265.10bit.HDR.DDP5.1-4K电影资源信息
  1.         
  2. Video
  3. ID : 1
  4. Format : HEVC
  5. Format/Info : High Efficiency Video Coding
  6. Format profile : Main 10@L5@Main
  7. HDR format : Dolby Vision, Version 1.0, dvhe.08.06, BL+RPU, HDR10 compatible / SMPTE ST 2086, HDR10 compatible
  8. Codec ID : V_MPEGH/ISO/HEVC
  9. Duration : 1 h 48 min
  10. Bit rate : 19.5 Mb/s
  11. Width : 3 840 pixels
  12. Height : 2 160 pixels
  13. Display aspect ratio : 16:9
  14. Frame rate mode : Constant
  15. Frame rate : 23.976 (24000/1001) FPS
  16. Color space : YUV
  17. Chroma subsampling : 4:2:0 (Type 2)
  18. Bit depth : 10 bits
  19. Bits/(Pixel*Frame) : 0.098
  20. Stream size : 14.7 GiB (94%)
  21. Default : Yes
  22. Forced : No
  23. Color range : Limited
  24. Color primaries : BT.2020
  25. Transfer characteristics : PQ
  26. Matrix coefficients : BT.2020 non-constant
  27. Mastering display color primaries : Display P3
  28. Mastering display luminance : min: 0.0001 cd/m2, max: 1000 cd/m2
  29. Maximum Content Light Level : 1020 cd/m2
  30. Maximum Frame-Average Light Level : 186 cd/m2

  31. Audio #1
  32. ID : 2
  33. Format : E-AC-3
  34. Format/Info : Enhanced AC-3
  35. Commercial name : Dolby Digital Plus
  36. Codec ID : A_EAC3
  37. Duration : 1 h 48 min
  38. Bit rate mode : Constant
  39. Bit rate : 640 kb/s
  40. Channel(s) : 6 channels
  41. Channel layout : L R C LFE Ls Rs
  42. Sampling rate : 48.0 kHz
  43. Frame rate : 31.250 FPS (1536 SPF)
  44. Compression mode : Lossy
  45. Stream size : 498 MiB (3%)
  46. Title : Spanish
  47. Language : Spanish
  48. Service kind : Complete Main
  49. Default : Yes
  50. Forced : No

  51. Audio #2
  52. ID : 3
  53. Format : E-AC-3
  54. Format/Info : Enhanced AC-3
  55. Commercial name : Dolby Digital Plus
  56. Codec ID : A_EAC3
  57. Duration : 1 h 48 min
  58. Bit rate mode : Constant
  59. Bit rate : 640 kb/s
  60. Channel(s) : 6 channels
  61. Channel layout : L R C LFE Ls Rs
  62. Sampling rate : 48.0 kHz
  63. Frame rate : 31.250 FPS (1536 SPF)
  64. Compression mode : Lossy
  65. Stream size : 498 MiB (3%)
  66. Title : English
  67. Language : English
  68. Service kind : Complete Main
  69. Default : No
  70. Forced : No

  71. Text #1
  72. ID : 4
  73. Format : UTF-8
  74. Codec ID : S_TEXT/UTF8
  75. Codec ID/Info : UTF-8 Plain Text
  76. Duration : 1 h 47 min
  77. Bit rate : 20 b/s
  78. Frame rate : 0.061 FPS
  79. Count of elements : 390
  80. Stream size : 16.2 KiB (0%)
  81. Title : English (Forced)
  82. Language : English
  83. Default : No
  84. Forced : Yes

  85. Text #2
  86. ID : 5
  87. Format : UTF-8
  88. Codec ID : S_TEXT/UTF8
  89. Codec ID/Info : UTF-8 Plain Text
  90. Duration : 1 h 48 min
  91. Bit rate : 127 b/s
  92. Frame rate : 0.214 FPS
  93. Count of elements : 1389
  94. Stream size : 101 KiB (0%)
  95. Title : Arabic
  96. Language : Arabic
  97. Default : No
  98. Forced : No

  99. Text #3
  100. ID : 6
  101. Format : UTF-8
  102. Codec ID : S_TEXT/UTF8
  103. Codec ID/Info : UTF-8 Plain Text
  104. Duration : 1 h 48 min
  105. Bit rate : 70 b/s
  106. Frame rate : 0.214 FPS
  107. Count of elements : 1392
  108. Stream size : 55.7 KiB (0%)
  109. Title : Czech
  110. Language : Czech
  111. Default : No
  112. Forced : No

  113. Text #4
  114. ID : 7
  115. Format : UTF-8
  116. Codec ID : S_TEXT/UTF8
  117. Codec ID/Info : UTF-8 Plain Text
  118. Duration : 1 h 48 min
  119. Bit rate : 74 b/s
  120. Frame rate : 0.210 FPS
  121. Count of elements : 1364
  122. Stream size : 58.7 KiB (0%)
  123. Title : German
  124. Language : German
  125. Default : No
  126. Forced : No

  127. Text #5
  128. ID : 8
  129. Format : UTF-8
  130. Codec ID : S_TEXT/UTF8
  131. Codec ID/Info : UTF-8 Plain Text
  132. Duration : 1 h 48 min
  133. Bit rate : 129 b/s
  134. Frame rate : 0.214 FPS
  135. Count of elements : 1387
  136. Stream size : 103 KiB (0%)
  137. Title : Modern Greek (1453-)
  138. Language : Greek
  139. Default : No
  140. Forced : No

  141. Text #6
  142. ID : 9
  143. Format : UTF-8
  144. Codec ID : S_TEXT/UTF8
  145. Codec ID/Info : UTF-8 Plain Text
  146. Duration : 1 h 48 min
  147. Bit rate : 76 b/s
  148. Frame rate : 0.217 FPS
  149. Count of elements : 1411
  150. Stream size : 60.9 KiB (0%)
  151. Title : English
  152. Language : English
  153. Default : No
  154. Forced : No

  155. Text #7
  156. ID : 10
  157. Format : UTF-8
  158. Codec ID : S_TEXT/UTF8
  159. Codec ID/Info : UTF-8 Plain Text
  160. Duration : 1 h 48 min
  161. Bit rate : 76 b/s
  162. Frame rate : 0.214 FPS
  163. Count of elements : 1389
  164. Stream size : 60.9 KiB (0%)
  165. Title : English
  166. Language : English
  167. Default : No
  168. Forced : No

  169. Text #8
  170. ID : 11
  171. Format : UTF-8
  172. Codec ID : S_TEXT/UTF8
  173. Codec ID/Info : UTF-8 Plain Text
  174. Duration : 1 h 48 min
  175. Bit rate : 81 b/s
  176. Frame rate : 0.228 FPS
  177. Count of elements : 1483
  178. Stream size : 64.4 KiB (0%)
  179. Title : English (SDH)
  180. Language : English
  181. Default : No
  182. Forced : No

  183. Text #9
  184. ID : 12
  185. Format : UTF-8
  186. Codec ID : S_TEXT/UTF8
  187. Codec ID/Info : UTF-8 Plain Text
  188. Duration : 1 h 45 min
  189. Bit rate : 88 b/s
  190. Frame rate : 0.257 FPS
  191. Count of elements : 1617
  192. Stream size : 68.3 KiB (0%)
  193. Title : Spanish (SDH)
  194. Language : Spanish
  195. Default : No
  196. Forced : No

  197. Text #10
  198. ID : 13
  199. Format : UTF-8
  200. Codec ID : S_TEXT/UTF8
  201. Codec ID/Info : UTF-8 Plain Text
  202. Duration : 1 h 48 min
  203. Bit rate : 75 b/s
  204. Frame rate : 0.211 FPS
  205. Count of elements : 1372
  206. Stream size : 60.2 KiB (0%)
  207. Title : French
  208. Language : French
  209. Default : No
  210. Forced : No

  211. Text #11
  212. ID : 14
  213. Format : UTF-8
  214. Codec ID : S_TEXT/UTF8
  215. Codec ID/Info : UTF-8 Plain Text
  216. Duration : 1 h 48 min
  217. Bit rate : 112 b/s
  218. Frame rate : 0.215 FPS
  219. Count of elements : 1398
  220. Stream size : 89.0 KiB (0%)
  221. Title : Hebrew
  222. Language : Hebrew
  223. Default : No
  224. Forced : No

  225. Text #12
  226. ID : 15
  227. Format : UTF-8
  228. Codec ID : S_TEXT/UTF8
  229. Codec ID/Info : UTF-8 Plain Text
  230. Duration : 1 h 48 min
  231. Bit rate : 65 b/s
  232. Frame rate : 0.205 FPS
  233. Count of elements : 1332
  234. Stream size : 52.1 KiB (0%)
  235. Title : Croatian
  236. Language : Croatian
  237. Default : No
  238. Forced : No

  239. Text #13
  240. ID : 16
  241. Format : UTF-8
  242. Codec ID : S_TEXT/UTF8
  243. Codec ID/Info : UTF-8 Plain Text
  244. Duration : 1 h 48 min
  245. Bit rate : 72 b/s
  246. Frame rate : 0.203 FPS
  247. Count of elements : 1316
  248. Stream size : 57.7 KiB (0%)
  249. Title : Hungarian
  250. Language : Hungarian
  251. Default : No
  252. Forced : No

  253. Text #14
  254. ID : 17
  255. Format : UTF-8
  256. Codec ID : S_TEXT/UTF8
  257. Codec ID/Info : UTF-8 Plain Text
  258. Duration : 1 h 48 min
  259. Bit rate : 73 b/s
  260. Frame rate : 0.210 FPS
  261. Count of elements : 1361
  262. Stream size : 58.3 KiB (0%)
  263. Title : Italian
  264. Language : Italian
  265. Default : No
  266. Forced : No

  267. Text #15
  268. ID : 18
  269. Format : UTF-8
  270. Codec ID : S_TEXT/UTF8
  271. Codec ID/Info : UTF-8 Plain Text
  272. Duration : 1 h 48 min
  273. Bit rate : 76 b/s
  274. Frame rate : 0.197 FPS
  275. Count of elements : 1279
  276. Stream size : 60.7 KiB (0%)
  277. Title : Dutch
  278. Language : Dutch
  279. Default : No
  280. Forced : No

  281. Text #16
  282. ID : 19
  283. Format : UTF-8
  284. Codec ID : S_TEXT/UTF8
  285. Codec ID/Info : UTF-8 Plain Text
  286. Duration : 1 h 48 min
  287. Bit rate : 71 b/s
  288. Frame rate : 0.211 FPS
  289. Count of elements : 1367
  290. Stream size : 56.7 KiB (0%)
  291. Title : Polish
  292. Language : Polish
  293. Default : No
  294. Forced : No

  295. Text #17
  296. ID : 20
  297. Format : UTF-8
  298. Codec ID : S_TEXT/UTF8
  299. Codec ID/Info : UTF-8 Plain Text
  300. Duration : 1 h 48 min
  301. Bit rate : 72 b/s
  302. Frame rate : 0.221 FPS
  303. Count of elements : 1435
  304. Stream size : 57.8 KiB (0%)
  305. Title : Portuguese
  306. Language : Portuguese
  307. Default : No
  308. Forced : No

  309. Text #18
  310. ID : 21
  311. Format : UTF-8
  312. Codec ID : S_TEXT/UTF8
  313. Codec ID/Info : UTF-8 Plain Text
  314. Duration : 1 h 48 min
  315. Bit rate : 77 b/s
  316. Frame rate : 0.200 FPS
  317. Count of elements : 1301
  318. Stream size : 61.1 KiB (0%)
  319. Title : Portuguese
  320. Language : Portuguese
  321. Default : No
  322. Forced : No

  323. Text #19
  324. ID : 22
  325. Format : UTF-8
  326. Codec ID : S_TEXT/UTF8
  327. Codec ID/Info : UTF-8 Plain Text
  328. Duration : 1 h 48 min
  329. Bit rate : 76 b/s
  330. Frame rate : 0.195 FPS
  331. Count of elements : 1267
  332. Stream size : 60.6 KiB (0%)
  333. Title : Romanian
  334. Language : Romanian
  335. Default : No
  336. Forced : No

  337. Text #20
  338. ID : 23
  339. Format : UTF-8
  340. Codec ID : S_TEXT/UTF8
  341. Codec ID/Info : UTF-8 Plain Text
  342. Duration : 1 h 48 min
  343. Bit rate : 70 b/s
  344. Frame rate : 0.201 FPS
  345. Count of elements : 1308
  346. Stream size : 56.2 KiB (0%)
  347. Title : Turkish
  348. Language : Turkish
  349. Default : No
  350. Forced : No

  351. Text #21
  352. ID : 24
  353. Format : UTF-8
  354. Codec ID : S_TEXT/UTF8
  355. Codec ID/Info : UTF-8 Plain Text
  356. Duration : 1 h 48 min
  357. Bit rate : 121 b/s
  358. Frame rate : 0.212 FPS
  359. Count of elements : 1378
  360. Stream size : 96.4 KiB (0%)
  361. Title : Ukrainian
  362. Language : Ukrainian
  363. Default : No
  364. Forced : No

  365. Menu
  366. 00:00:00.000 : en:Part 01
  367. 01:45:29.450 : en:Credits
复制代码


A plena luz: El caso Narvarte/In.Broad.Daylight.The.Narvarte.Case4K 2022.SPANISH.2160p.NF.WEB-DL.x265.10bit.HDR.DDP5.1-4K电影资源信息

In.Broad.Daylight.The.Narvarte.Case4K 2022.SPANISH.2160p.NF.WEB-DL.x265.10bit.HDR.DDP5.1【HDR 15.72 GB】
磁力链下载:

magnet:?xt=urn:btih:10804692453cdcbc706aecc27a2543e309cc4e14&dn

In.Broad.Daylight.The.Narvarte.Case.2022.SPANISH.2160p.NF.WEB-DL.x265.10bit.SDR.DDP5.1【SDR  9.86 GB】
magnet:?xt=urn:btih:f2ca22404d9114fedcd38b9f50e2f1e2b0909e4d&dn

精彩评论3

无休止旋律 发表于 2023-4-18 09:10:55
感谢分享
回复 支持 反对

使用道具 举报

shine288 发表于 2023-6-13 10:12:28
感谢楼主分享
回复 支持 反对

使用道具 举报

您需要登录后才可以回帖 登录 | 立即注册

本版积分规则

推荐影视全站推荐影视下载
  • 7.6

    2023-9-2/4K(3840x2160)

    偷天换日4k

    DISC INFO: Disc Title: The.Italian.Job.2003.2160p.BluRay.HEVC.DTS-HD.MA.5.1-EATDIK Disc Size: 63,031,965,420 bytes Protection: AACS2 Extras: Ultra HD, BD-Java BDInfo: 0.7.6.1 (compatible layout created by DVDFab 12.1.0.5) PLAYLIST REPORT: Name: 00100.MPLS Length: 1:50:32.542 (h:m:s.ms) Size: 62,603,421,696 bytes Total Bitrate: 75.51 Mbps (*) Indicates included stream hidden by this playlist. VIDEO: Codec Bitrate Description ----- ------- ----------- MPEG-H HEVC Video 51999 kbps 2160p / 23.976 fps / 16:9 / Main 10 @ Level 5.1 @ High / 4:2:0 / 10 bits / 1000nits / HDR10 / BT.2020 * MPEG-H HEVC Video 13074 kbps (20.09%) 1080p / 23.976 fps / 16:9 / Main 10 @ Level 5.1 @ High / 4:2:0 / 10 bits / 1000nits / Dolby Vision FEL / BT.2020 AUDIO: Codec Language Bitrate Description ----- -------- ------- ----------- DTS-HD Master Audio English 4008 kbps 5.1 / 48 kHz / 4008 kbps / 24-bit (DTS Core: 5.1 / 48 kHz / 1509 kbps / 24-bit) Dolby Digital Audio English 640 kbps 5.1 / 48 kHz / 640 kbps Dolby Digital Audio Spanish 640 kbps 5.1 / 48 kHz / 640 kbps Dolby Digital Audio French 640 kbps 5.1 / 48 kHz / 640 kbps Dolby Digital Audio Italian 640 kbps 5.1 / 48 kHz / 640 kbps SUBTITLES: Codec Language Bitrate Description ----- -------- ------- ----------- Presentation Graphics English 30.918 kbps Presentation Graphics English 40.178 kbps Presentation Graphics Spanish 23.868 kbps Presentation Graphics Spanish 25.247 kbps Presentation Graphics French 24.711 kbps Presentation Graphics Italian 24.595 kbps Presentation Graphics Dutch 20.13 kbps Presentation Graphics Spanish 0.397 kbps Presentation Graphics French 0.651 kbps Presentation Graphics Italian 0.222 kbps Trailer:

    偷天换日4k(00年代)
    7.6
    ①网盘资源信息:
    剧情简介:查理(马克·沃尔伯格 Mark Wahlberg 饰)本来可以拿着抢劫回来的那箱黄金安度余生,同伙史蒂夫(爱德华·诺顿 Edward Norton饰)的出卖却让他的阵脚大乱。史蒂夫不但独吞了巨款逃亡洛杉矶,还害得查理尝尽牢狱之苦。   现在从监狱出来的查理,正踌躇满志要找史蒂夫算上一帐。他网罗了盗窃高手——美女斯黛拉(查理兹·塞隆 Charlize Theron 饰)专门负责开保险柜,而他和其他搭档,则全力设计出一条通畅的大道,供迅速逃跑之用。斯黛拉前往引史蒂夫上勾,却被老奸巨猾的史蒂夫识破。查理则飞速的破坏了洛杉矶的红绿灯系统,洛杉矶发生了蔚为壮观的大塞车,然而,令他们意外的是,逃脱没有如此简单——史蒂夫没有驱车追赶,他用了一辆直升飞机,在他们上空穷追不舍。洛杉矶的地下隧道和街头小巷,陷入了一片混战。
    7.4

    2023-9-5/4K(3840x2160)

    前程似锦的女孩4k

    Disc Label: Promising.Young.Woman.2020.COMPLETE.UHD.BLURAY-B0MBARDiERS Disc Size: 50,867,786,228 bytes Protection: AACS2 Playlist: 00000.MPLS Size: 48,650,876,928 bytes Length: 1:53:27.842 Total Bitrate: 57.17 Mbps Video: MPEG-H HEVC Video / 49999 kbps / 2160p / 23.976 fps / 16:9 / Main 10 @ Level 5.1 @ High / 10 bits / HDR10 / BT.2020 Audio: English / Dolby Digital Audio / 5.1 / 48 kHz / 448 kbps / DN -27dB Audio: English / DTS-HD Master Audio / 5.1 / 48 kHz / 3757 kbps / 24-bit (DTS Core: 5.1 / 48 kHz / 1509 kbps / 24-bit) Audio: English / Dolby Digital Audio / 2.0 / 48 kHz / 192 kbps / DN -31dB Subtitle: English / 40.108 kbps

    ①网盘资源信息:
    剧情简介: 每个人都说凯茜(凯瑞·穆里根 饰)是个很有前途的年轻女子,直到一场神秘事件突然发生使她的未来脱轨。但是在凯茜的生活中,一切看起来并非如此:她邪恶而又聪明,诱人但又狡猾,还在夜间过着秘密的双重生活。现在,意外的遭遇将使凯茜有机会纠正过去的错误。
    6.4

    2023-9-8/4K(3840x2160)

    海扁王2 4k

    Disc Title: Kick-Ass 2 Disc Label: Kick-Ass.2.2013.COMPLETE.UHD.BLURAY-4KSJ Disc Size: 64,388,707,715 bytes Protection: AACS2 Playlist: 00800.MPLS Size: 45,787,946,880 bytes Length: 1:43:00.841 Total Bitrate: 59.26 Mbps Video: MPEG-H HEVC Video / 45854 kbps / 2160p / 23.976 fps / 16:9 / Main 10 @ Level 5.1 @ High / 10 bits / HDR10 / BT.2020 Audio: English / DTS:X Master Audio / 7.1 / 48 kHz / 5637 kbps / 24-bit (DTS Core: 5.1 / 48 kHz / 1509 kbps / 24-bit) Audio: French / DTS Audio / 5.1 / 48 kHz / 768 kbps / 24-bit Audio: French / DTS Audio / 5.1 / 48 kHz / 768 kbps / 24-bit Audio: Spanish / DTS Audio / 5.1 / 48 kHz / 768 kbps / 24-bit Audio: Spanish / DTS Audio / 5.1 / 48 kHz / 768 kbps / 24-bit Audio: Japanese / DTS Audio / 5.1 / 48 kHz / 768 kbps / 24-bit Audio: English / Dolby Digital Audio / 2.0 / 48 kHz / 192 kbps / DN -27dB / Dolby Surround Subtitle: English / 49.844 kbps Subtitle: French / 32.680 kbps Subtitle: French / 43.077 kbps Subtitle: Spanish / 41.175 kbps Subtitle: Spanish / 38.258 kbps Subtitle: Japanese / 30.183 kbps Subtitle: Chinese / 30.905 kbps Subtitle: Korean / 29.158 kbps Subtitle: English / 90.947 kbps Subtitle: French / 80.314 kbps Subtitle: Spanish / 82.447 kbps Subtitle: Japanese / 45.451 kbps Subtitle: French / 0.414 kbps Subtitle: French / 1.055 kbps Subtitle: Spanish / 0.807 kbps Subtitle: Spanish / 0.577 kbps Subtitle: Japanese / 0.702 kbps

    海扁王2 4k(2013年)
    6.4
    ①网盘资源信息:
    剧情简介:自“大老霸”牺牲后,“超杀女”明蒂(科洛·莫瑞兹 Chloe Moretz 饰)不忘匡扶正义的使命,依然穿梭城市的每一个角落惩治邪恶。而“海扁王”戴夫·莱泽斯基(亚伦·约翰逊 Aaron Johnson 饰)为了能和超杀女组成新的搭档,心甘情愿接受对方的各种严苛训练。另一方面,收养了明蒂的马库斯(Morris Chestnut 饰)希望她能过回正常校园女孩的生活,享受恋爱和友情点缀的人生。眼见明蒂放弃了正义使者的身份,戴夫只得转向由洗心革面的黑帮打手“上校”(金·凯瑞 Jim Carrey 饰)组成的正义永存联盟,和一群原本生活中的废柴为了正义而奋斗。与此同时,失去父母的克里斯(克里斯托夫·梅兹-普莱瑟 Christopher Mintz-Plasse 饰)狂性大发,更名“臭屁王(MotherFu*ker)”,他网罗了一群亡命之徒,发誓摧毁海扁王及其伙伴们的正义事业。   正邪大乱斗在这座城市里拉开帷幕……
    8.5

    2023-9-1/4K(3840x2160)

    蜘蛛侠:纵横宇宙4K

    DISC INFO: Disc Title: Spider-Man.Across.the.Spider-Verse.2023.UHD.BluRay.2160p.HEVC.Atmos.TrueHD7.1 Disc Size: 87,228,543,996 bytes Protection: AACS2 Extras: Ultra HD, BD-Java BDInfo: 0.7.5.9 (compatible layout created by DVDFab 12.0.5.1) PLAYLIST REPORT: Name: 00001.MPLS Length: 2:20:06.397 (h:m:s.ms) Size: 84,666,335,232 bytes Total Bitrate: 80.57 Mbps (*) Indicates included stream hidden by this playlist. VIDEO: Codec Bitrate Description ----- ------- ----------- MPEG-H HEVC Video 67108 kbps 2160p / 23.976 fps / 16:9 / Main 10 @ Level 5.1 @ High / 4:2:0 / 10 bits / 1000nits / HDR10 / BT.2020 * MPEG-H HEVC Video 2089 kbps (3.02%) 1080p / 23.976 fps / 16:9 / Main 10 @ Level 5.1 @ High / 4:2:0 / 10 bits / 1000nits / Dolby Vision FEL / BT.2020 AUDIO: Codec Language Bitrate Description ----- -------- ------- ----------- Dolby TrueHD/Atmos Audio English 4448 kbps 7.1+11 objects / 48 kHz / 3808 kbps / 24-bit (AC3 Core: 5.1 / 48 kHz / 640 kbps) Dolby Digital Audio English 192 kbps 2.0 / 48 kHz / 192 kbps Dolby Digital Audio French 640 kbps 5.1 / 48 kHz / 640 kbps Dolby Digital Audio French 192 kbps 2.0 / 48 kHz / 192 kbps Dolby Digital Audio Spanish 640 kbps 5.1 / 48 kHz / 640 kbps Dolby Digital Audio English 192 kbps 2.0 / 48 kHz / 192 kbps SUBTITLES: Codec Language Bitrate Description ----- -------- ------- ----------- Presentation Graphics English 45.238 kbps Presentation Graphics English 38.247 kbps Presentation Graphics French 31.891 kbps Presentation Graphics Spanish 35.957 kbps Presentation Graphics French 0.383 kbps Presentation Graphics English 84.93 kbps Presentation Graphics Spanish 60.98 kbps

    ①网盘资源信息:
    剧情简介:影片讲述了新生代蜘蛛侠迈尔斯(沙梅克·摩尔 Shameik Moore 配音)携手蜘蛛格温(海莉·斯坦菲尔德 Hailee Steinfeld 配音),穿越多元宇宙踏上更宏大的冒险征程的故事。面临每个蜘蛛侠都会失去至亲的宿命,迈尔斯誓言打破命运魔咒,找到属于自己的英雄之路。而这个决定和蜘蛛侠2099(奥斯卡·伊萨克 Oscar Is aac 配音)所领军的蜘蛛联盟产生了极大冲突,一场以一敌百的蜘蛛侠大内战即将拉响!
    5.7

    2023-8-30/4K(3840x2160)

    龙马精神4K

    Disc Title: RIDE ON - DIE ZWEITE CHANCE Disc Label: RideOn_Final Disc Size: 81,576,870,437 bytes Protection: AACS2 Extras: Ultra HD BDInfo: 0.8.0.1b PLAYLIST REPORT: Name: 00000.MPLS Length: 02:05:37.666 (h:m:s.ms) Size: 78,322,983,744 bytes Total Bitrate: 83.13 Mbps (*) Indicates included stream hidden by this playlist. VIDEO: Codec Bitrate Description --------------- ------------- ----------- MPEG-H HEVC Video 63,733 kbps 2160p / 24 fps / 16:9 / Main 10 @ Level 5.1 @ High / 4:2:0 / 10 bits / HDR10 / Limited Range / BT.2020 / PQ / BT.2020 non-constant / Mastering display color primaries: BT.2020 / Mastering display luminance: min: 0.0001 cd/m2, max: 1000.0000 cd/m2 * MPEG-H HEVC Video 9,995 kbps 1080p / 24 fps / 16:9 / Main 10 @ Level 5.1 @ High / 4:2:0 / 10 bits / Dolby Vision / Limited Range / BT.2020 / PQ / BT.2020 non-constant / Mastering display color primaries: BT.2020 / Mastering display luminance: min: 0.0001 cd/m2, max: 1000.0000 cd/m2 AUDIO: Codec Language Bitrate Description --------------- ------------- ------------- ----------- DTS-HD Master Audio German 3509 kbps 5.1 / 48 kHz / 3509 kbps / 24-bit (DTS Core: 5.1 / 48 kHz / 1509 kbps / 24-bit) DTS-HD Master Audio Chinese 1836 kbps 5.1 / 48 kHz / 1836 kbps / 16-bit (DTS Core: 5.1 / 48 kHz / 1509 kbps / 16-bit) SUBTITLES: Codec Language Bitrate Description --------------- ------------- ------------- ----------- Presentation Graphics German 38.21 kbps 1920x1080 / 1495 Captions Presentation Graphics German 0.61 kbps 1920x1080 / 24 Forced Captions

    龙马精神4K(2023年)
    5.7
    ①网盘资源信息:龙马精神4K.Ride.On.2023.2160p.HQ.WEB-DL.H265.60fps.AAC【HDR 22.11 GB】
    剧情简介:生活落魄的武行老罗(成龙 饰)有一匹爱马“赤兔”,他一直想把它培养成片场的动作明星,不料却深陷官司,只能求助多年未见的女儿小宝(刘浩存 饰)和她的律师男友乃华(郭麒麟 饰)。小宝一边帮老罗打官司,一边劝说他不要带着赤兔玩命做危险动作,老罗不顾女儿反对继续偷偷训练赤兔,同时又对准女婿乃华展开了各种考验……
2015-2023 www.4ksj.com  4K世界 |网站地图
京ICP证160991号 京公网安备11010802015683号 Copyright ©2023 All Rights Reserved.
    *本站提供的所有电影资源均来自互联网,仅限交流使用,请在下载后的2小时内删除,所有版权皆属原公司所有,如果认为本站侵犯了您的版权,请告知,我们会立即删除。