注册/登陆
游客您好
第三方账号登陆
圣诞投爱4K Operation.Christmas.Drop.2020.2160p电影下载
[复制链接]
2023-04-21 发布
  • 黄金会员
  • 0
  • 1042
青衫烟雨 发表于 2023-4-21 16:07 | 显示全部楼层 |阅读模式 打印 上一主题 下一主题
圣诞投爱4k
2020年(豆瓣:5.6)
  • 电影声道:5.1声道 
  • 音质编码:Dolby-Atmos Dolby Digital Plus Audio 
  • 画质标准 HDR 
  • 帧数/FPS:23.976 Fps
    资源特性  
    发布排行:全球第 部UHD原盘
    导  演:马丁·伍德
    制片国家:美国 
    电影分类:喜剧 爱情片 
    分 辨 率:4K(3840x2160)
    电影语言:原版字幕   
简介为了收集证据来支持关闭一个位于热带的美国空军基地,一位做事一板一眼的国会助理前往当地,却在过程中逐渐对心地善良的上尉产生好感。
  • 电影下载
  • 资源INFO
  • 下载说明
  • 网盘下载Cloud storage / Cloud disk
    网盘链接

    提取码①
    隐藏内容

    提取码②
    隐藏内容
    中文字幕

  • 电影信息INFO
  • 多个种子/电影版本区别
    蓝光原盘BDMV/ISO
    俗称4K蓝光原盘,也就是从4K UHD蓝光碟中提取出来的源文件,由多个m2ts文件组成,与正版盘完全一致,且包含了光盘所有内容 (影片花絮、字幕、导航菜单、多语言多音轨、HDR 信息)等等,文件体积大,一部电影约有60GB+。此版本资源一般以「BDMV 文件夹」或「BDISO」 (iso) 格式发布;该版本可以用刻录机成带导航的光盘效果。

    DIY蓝光原盘
    经资源制作组基于蓝光原盘BDMV版本进行第二次DIY的版本,将片头AE特效、画面HDR调色、封装国语音轨、封装中文简体/繁体/英文等多语言字幕,更精彩的是是特效字幕(将电影画面中某些细节翻译成中文字幕)。

    蓝光BD-REMUX
    俗称REMUX,可以视为「音画质无损的精简版」"4K原盘",它其实就是将原盘里多余的一些音轨、花絮、菜单、字幕等东西移除或精简,仅保留主要的视频、主要音轨和部分语言字幕,然后再封装成「单个文件」的 .mkv 格式而来,其音质画质与BDMV蓝光原盘一致,但文件体积上能大幅缩减且成单个文件,在电脑上播放/管理/电视播放/播放器播放和分享起来也更方便。适合追求原盘音画质、不重视花絮周边内容、又希望稍微节省点硬盘空间的朋友。

    WEB-DL/WEBRip/流媒体版本
    WEB-DL 或 WEBRip 格式的影片主要来自 、Amazon Prime Video、Netflix、Hulu、YouTube 等「在线网络高清片源」。尽管这些服务提供了4K分辨率 (部分含 HDR) 的片源,但它们为了在线观看的流畅性,都会将视频画质进行较大幅度「有损压缩」。 WEB-DL 是 Web Download 的意思,指通过技术手段「直接下载」回来的在线视频 WEBRip 很多时候则是通过"屏幕转录"等方式二次录制,会造成多一次的画质损失。

    本站4K电影版块资源99%是真4K,都是从UHD蓝光碟片中提取而来!本站未发布的4K资源,全网都没有(除非假4K),所以发帖求资源也没用。

    下载速度慢怎么办
    1、正常情况使用《UTorrent》跟着网站发布资源节奏下载速度很快,可以达到宽带最大速度(电信)
    2、推荐使用《115网盘》下载速度又快又稳定,请勿使用迅雷下载;
    3、下载慢是有多方面原因,即依赖种子的热度、也要求是电信宽带(非移动/联通),同时选择对的下载软件和软件设置方法。
    4、使用BT协议下载没有速度,请更新《Trackers服务器》能够增加在线用户(越多越好),该方法使用《UTorrent》下载效果显著。
    更多下载问题参考: 4K电影下载指南>>



在圣诞空投时/圣诞投爱4K Operation.Christmas.Drop.2020.2160p.NF.WEB-DL.x265.10bit.HDR.DDP5.1.Atmos-4K电影信息
  1. Video
  2. ID : 1
  3. Format : HEVC
  4. Format/Info : High Efficiency Video Coding
  5. Format profile : Main 10@L5@Main
  6. HDR format : Dolby Vision, Version 1.0, dvhe.08.06, BL+RPU, HDR10 compatible / SMPTE ST 2086, HDR10 compatible
  7. Codec ID : V_MPEGH/ISO/HEVC
  8. Duration : 1 h 35 min
  9. Bit rate : 18.1 Mb/s
  10. Width : 3 840 pixels
  11. Height : 2 160 pixels
  12. Display aspect ratio : 16:9
  13. Frame rate mode : Constant
  14. Frame rate : 23.976 (24000/1001) FPS
  15. Color space : YUV
  16. Chroma subsampling : 4:2:0 (Type 2)
  17. Bit depth : 10 bits
  18. Bits/(Pixel*Frame) : 0.091
  19. Stream size : 12.1 GiB (96%)
  20. Default : Yes
  21. Forced : No
  22. Color range : Limited
  23. Color primaries : BT.2020
  24. Transfer characteristics : PQ
  25. Matrix coefficients : BT.2020 non-constant
  26. Mastering display color primaries : Display P3
  27. Mastering display luminance : min: 0.0001 cd/m2, max: 1000 cd/m2
  28. Maximum Content Light Level : 1074 cd/m2
  29. Maximum Frame-Average Light Level : 351 cd/m2

  30. Audio
  31. ID : 2
  32. Format : E-AC-3 JOC
  33. Format/Info : Enhanced AC-3 with Joint Object Coding
  34. Commercial name : Dolby Digital Plus with Dolby Atmos
  35. Codec ID : A_EAC3
  36. Duration : 1 h 36 min
  37. Bit rate mode : Constant
  38. Bit rate : 768 kb/s
  39. Channel(s) : 6 channels
  40. Channel layout : L R C LFE Ls Rs
  41. Sampling rate : 48.0 kHz
  42. Frame rate : 31.250 FPS (1536 SPF)
  43. Compression mode : Lossy
  44. Stream size : 530 MiB (4%)
  45. Title : English
  46. Language : English
  47. Service kind : Complete Main
  48. Default : Yes
  49. Forced : No
  50. Complexity index : 16
  51. Number of dynamic objects : 15
  52. Bed channel count : 1 channel
  53. Bed channel configuration : LFE

  54. Text #1
  55. ID : 3
  56. Format : UTF-8
  57. Codec ID : S_TEXT/UTF8
  58. Codec ID/Info : UTF-8 Plain Text
  59. Duration : 1 h 34 min
  60. Bit rate : 129 b/s
  61. Frame rate : 0.236 FPS
  62. Count of elements : 1340
  63. Stream size : 89.7 KiB (0%)
  64. Title : Arabic
  65. Language : Arabic
  66. Default : No
  67. Forced : No

  68. Text #2
  69. ID : 4
  70. Format : UTF-8
  71. Codec ID : S_TEXT/UTF8
  72. Codec ID/Info : UTF-8 Plain Text
  73. Duration : 1 h 34 min
  74. Bit rate : 69 b/s
  75. Frame rate : 0.215 FPS
  76. Count of elements : 1224
  77. Stream size : 48.2 KiB (0%)
  78. Title : Czech
  79. Language : Czech
  80. Default : No
  81. Forced : No

  82. Text #3
  83. ID : 5
  84. Format : UTF-8
  85. Codec ID : S_TEXT/UTF8
  86. Codec ID/Info : UTF-8 Plain Text
  87. Duration : 1 h 34 min
  88. Bit rate : 62 b/s
  89. Frame rate : 0.205 FPS
  90. Count of elements : 1164
  91. Stream size : 43.4 KiB (0%)
  92. Title : Danish
  93. Language : Danish
  94. Default : No
  95. Forced : No

  96. Text #4
  97. ID : 6
  98. Format : UTF-8
  99. Codec ID : S_TEXT/UTF8
  100. Codec ID/Info : UTF-8 Plain Text
  101. Duration : 1 h 34 min
  102. Bit rate : 67 b/s
  103. Frame rate : 0.225 FPS
  104. Count of elements : 1278
  105. Stream size : 46.6 KiB (0%)
  106. Title : German
  107. Language : German
  108. Default : No
  109. Forced : No


  110. Text #30
  111. ID : 32
  112. Format : UTF-8
  113. Codec ID : S_TEXT/UTF8
  114. Codec ID/Info : UTF-8 Plain Text
  115. Duration : 1 h 34 min
  116. Bit rate : 75 b/s
  117. Frame rate : 0.239 FPS
  118. Count of elements : 1362
  119. Stream size : 52.3 KiB (0%)
  120. Title : Simplified, Chinese
  121. Language : Chinese
  122. Default : No
  123. Forced : No

  124. Text #31
  125. ID : 33
  126. Format : UTF-8
  127. Codec ID : S_TEXT/UTF8
  128. Codec ID/Info : UTF-8 Plain Text
  129. Duration : 1 h 34 min
  130. Bit rate : 72 b/s
  131. Frame rate : 0.262 FPS
  132. Count of elements : 1493
  133. Stream size : 50.3 KiB (0%)
  134. Title : Traditional, Chinese
  135. Language : Chinese
  136. Default : No
  137. Forced : No

  138. Menu
  139. 00:00:00.000 : en:Part 01
  140. 01:33:08.450 : en:Credits
复制代码

在圣诞空投时/圣诞投爱4K Operation.Christmas.Drop.2020.2160p.NF.WEB-DL.x265.10bit.HDR.DDP5.1.Atmos-4K电影下载

圣诞投爱4K Operation.Christmas.Drop.2020.2160p.NF.WEB-DL.x265.10bit.HDR.DDP5.1.Atmos【HDR 12.57 GB】
磁力链下载:

magnet:?xt=urn:btih:9ea0910c8b42c0bdf71d5cb1b1e97edcd4891055&dn

精彩评论7

helina 发表于 2023-4-24 17:49 | 显示全部楼层
谢谢楼主分享
回复 支持 反对

使用道具 举报

hyjyhj 发表于 2023-5-5 22:03 | 显示全部楼层
棒!谢谢分享!
回复 支持 反对

使用道具 举报

huangdama 发表于 2023-5-18 08:46 Hao4K手机版 | 显示全部楼层
感谢楼主分享
回复 支持 反对

使用道具 举报

shine288 发表于 2023-5-22 22:36 Hao4K手机版 | 显示全部楼层
谢谢分享资源
回复 支持 反对

使用道具 举报

您需要登录后才可以回帖 登录 | 立即注册

本版积分规则

推荐影视全站推荐影视下载
  • 7.6

    2023-5-18 06:23/4K(3840x2160)

    偷天换日4k

    DISC INFO: Disc Title: The.Italian.Job.2003.2160p.BluRay.HEVC.DTS-HD.MA.5.1-EATDIK Disc Size: 63,031,965,420 bytes Protection: AACS2 Extras: Ultra HD, BD-Java BDInfo: 0.7.6.1 (compatible layout created by DVDFab 12.1.0.5) PLAYLIST REPORT: Name: 00100.MPLS Length: 1:50:32.542 (h:m:s.ms) Size: 62,603,421,696 bytes Total Bitrate: 75.51 Mbps (*) Indicates included stream hidden by this playlist. VIDEO: Codec Bitrate Description ----- ------- ----------- MPEG-H HEVC Video 51999 kbps 2160p / 23.976 fps / 16:9 / Main 10 @ Level 5.1 @ High / 4:2:0 / 10 bits / 1000nits / HDR10 / BT.2020 * MPEG-H HEVC Video 13074 kbps (20.09%) 1080p / 23.976 fps / 16:9 / Main 10 @ Level 5.1 @ High / 4:2:0 / 10 bits / 1000nits / Dolby Vision FEL / BT.2020 AUDIO: Codec Language Bitrate Description ----- -------- ------- ----------- DTS-HD Master Audio English 4008 kbps 5.1 / 48 kHz / 4008 kbps / 24-bit (DTS Core: 5.1 / 48 kHz / 1509 kbps / 24-bit) Dolby Digital Audio English 640 kbps 5.1 / 48 kHz / 640 kbps Dolby Digital Audio Spanish 640 kbps 5.1 / 48 kHz / 640 kbps Dolby Digital Audio French 640 kbps 5.1 / 48 kHz / 640 kbps Dolby Digital Audio Italian 640 kbps 5.1 / 48 kHz / 640 kbps SUBTITLES: Codec Language Bitrate Description ----- -------- ------- ----------- Presentation Graphics English 30.918 kbps Presentation Graphics English 40.178 kbps Presentation Graphics Spanish 23.868 kbps Presentation Graphics Spanish 25.247 kbps Presentation Graphics French 24.711 kbps Presentation Graphics Italian 24.595 kbps Presentation Graphics Dutch 20.13 kbps Presentation Graphics Spanish 0.397 kbps Presentation Graphics French 0.651 kbps Presentation Graphics Italian 0.222 kbps Trailer:

    偷天换日4k(00年代)
    7.6
    ①网盘资源信息:
    剧情简介:查理(马克·沃尔伯格 Mark Wahlberg 饰)本来可以拿着抢劫回来的那箱黄金安度余生,同伙史蒂夫(爱德华·诺顿 Edward Norton饰)的出卖却让他的阵脚大乱。史蒂夫不但独吞了巨款逃亡洛杉矶,还害得查理尝尽牢狱之苦。   现在从监狱出来的查理,正踌躇满志要找史蒂夫算上一帐。他网罗了盗窃高手——美女斯黛拉(查理兹·塞隆 Charlize Theron 饰)专门负责开保险柜,而他和其他搭档,则全力设计出一条通畅的大道,供迅速逃跑之用。斯黛拉前往引史蒂夫上勾,却被老奸巨猾的史蒂夫识破。查理则飞速的破坏了洛杉矶的红绿灯系统,洛杉矶发生了蔚为壮观的大塞车,然而,令他们意外的是,逃脱没有如此简单——史蒂夫没有驱车追赶,他用了一辆直升飞机,在他们上空穷追不舍。洛杉矶的地下隧道和街头小巷,陷入了一片混战。
    6.0

    2023-5-11 00:00/4K(3840x2160)

    蚁人与黄蜂女:量子狂潮4k

    DIY DISC INFO: Disc Title: Ant Man and the Wasp Quantumania 2023 V1 ULTRAHD BluRay 2160p HEVC Atmos TrueHD7.1 Disc Size: 60,191,586,880 bytes Protection: AACS2 Extras: Ultra HD, BD-Java BDInfo: 0.7.6.1 (compatible layout created by DVDFab 12.1.0.4) PLAYLIST REPORT: Name: 00800.MPLS Length: 2:04:29.253 (h:m:s.ms) Size: 59,232,221,184 bytes Total Bitrate: 63.44 Mbps VIDEO: Codec Bitrate Description ----- ------- ----------- MPEG-H HEVC Video 51624 kbps 2160p / 23.976 fps / 16:9 / Main 10 @ Level 5.1 @ High / 4:2:0 / 10 bits / 1000nits / HDR10 / BT.2020 AUDIO: Codec Language Bitrate Description ----- -------- ------- ----------- Dolby TrueHD/Atmos Audio English 4986 kbps 7.1+13 objects / 48 kHz / 4346 kbps / 24-bit (AC3 Core: 5.1 / 48 kHz / 640 kbps) Dolby Digital Audio English 320 kbps 2.0 / 48 kHz / 320 kbps Dolby Digital Audio French 640 kbps 5.1 / 48 kHz / 640 kbps Dolby Digital Plus Audio Spanish 1024 kbps 7.1 / 48 kHz / 1024 kbps (AC3 Core: 5.1 / 48 kHz / 576 kbps ( Core: 5.1 / 48 kHz / 576 kbps)) Dolby Digital Audio Chinese 384 kbps 2.0 / 48 kHz / 384 kbps 公映国语 SUBTITLES: Codec Language Bitrate Description ----- -------- ------- ----------- Presentation Graphics English 42.989 kbps Presentation Graphics Chinese 81.487 kbps 国配简体特效 Presentation Graphics Chinese 82.175 kbps 国配繁体特效 Presentation Graphics Chinese 96.763 kbps 简英双语特效 Presentation Graphics French 0.373 kbps Presentation Graphics Spanish 0.06 kbps Presentation Graphics Japanese 0.127 kbps Presentation Graphics Chinese 97.423 kbps 繁英双语特效

    ①网盘资源信息:蚁人与黄蜂女:量子狂潮4k.Ant-Man.and.the.Wasp.Quantumania.2023.2160p.WEB-DL.x265.10bit.HDR10Plus.DDP5.1.Atmos【HDR 21.91 GB】
    剧情简介:影片是《蚁人》系列的第三部作品,同时也是漫威电影宇宙第五阶段的揭幕之作。故事发生于《复仇者联盟4:终局之战》之后,“蚁人”斯科特·朗(保罗·路德 Paul Rudd 饰)和“黄蜂女”霍普·凡·戴恩(伊万杰琳·莉莉 Evangeline Lilly 饰)成了拯救世界的英雄人物,皮姆博士与久违归来的珍妮特 也享受着平静的半退休生活,然而因为意外他们和斯科特的女儿凯茜(凯瑟琳·纽 顿 Kathryn Newton 饰)一起误入量子领域,在这个充满危险的未知世界遭遇了漫威电影宇宙最强反派——征服者康(乔纳森·梅杰斯 Jonathan Majors 饰),开始了一场超越他们想象极限的冒险。
    8.0

    2023-5-23 07:20/4K(3840x2160)

    疾速追杀4 4k

    Video ID : 1 Format : HEVC Format/Info : High Efficiency Video Coding Format profile : Main 10@L5@High HDR format : Dolby Vision, Version 1.0, dvhe.08.06, BL+RPU, HDR10 compatible / SMPTE ST 2094 App 4, Version 1, HDR10+ Profile B compatible Codec ID : V_MPEGH/ISO/HEVC Duration : 2 h 49 min Bit rate : 24.2 Mb/s Width : 3 828 pixels Height : 1 592 pixels Display aspect ratio : 2.40:1 Frame rate mode : Constant Frame rate : 23.976 (24000/1001) FPS Color space : YUV Chroma subsampling : 4:2:0 (Type 2) Bit depth : 10 bits Bits/(Pixel*Frame) : 0.166 Stream size : 28.7 GiB (97%) Language : English Default : Yes Forced : No Color range : Limited Color primaries : BT.2020 Transfer characteristics : PQ Matrix coefficients : BT.2020 non-constant Mastering display color primaries : BT.2020 Mastering display luminance : min: 0.0050 cd/m2, max: 1000 cd/m2 Maximum Content Light Level : 2458 cd/m2 Maximum Frame-Average Light Level : 636 cd/m2 Audio ID : 2 Format : E-AC-3 JOC Format/Info : Enhanced AC-3 with Joint Object Coding Commercial name : Dolby Digital Plus with Dolby Atmos Codec ID : A_EAC3 Duration : 2 h 49 min Bit rate mode : Constant Bit rate : 768 kb/s Channel(s) : 6 channels Channel layout : L R C LFE Ls Rs Sampling rate : 48.0 kHz Frame rate : 31.250 FPS (1536 SPF) Compression mode : Lossy Stream size : 930 MiB (3%) Language : English Service kind : Complete Main Default : Yes Forced : No Complexity index : 16 Number of dynamic objects : 15 Bed channel count : 1 channel Bed channel configuration : LFE Text #1 ID : 3 Format : UTF-8 Codec ID : S_TEXT/UTF8 Codec ID/Info : UTF-8 Plain Text Duration : 2 h 39 min Bit rate : 21 b/s Frame rate : 0.111 FPS Count of elements : 1063 Stream size : 25.4 KiB (0%) Language : English Default : No Forced : No Text #2 ID : 4 Format : UTF-8 Codec ID : S_TEXT/UTF8 Codec ID/Info : UTF-8 Plain Text Duration : 2 h 48 min Bit rate : 28 b/s Frame rate : 0.158 FPS Count of elements : 1594 Stream size : 34.9 KiB (0%) Title : SDH Language : English Default : No Forced : No Text #3 ID : 5 Format : UTF-8 Codec ID : S_TEXT/UTF8 Codec ID/Info : UTF-8 Plain Text Duration : 2 h 37 min Bit rate : 22 b/s Frame rate : 0.111 FPS Count of elements : 1050 Stream size : 26.3 KiB (0%) Language : French (FR) Default : No Forced : No Menu 00:00:00.000 : en:Chapter 01 00:13:44.532 : en:Chapter 02 00:25:42.292 : en:Chapter 03 00:38:32.604 : en:Chapter 04 00:51:26.294 : en:Chapter 05 01:06:42.002 : en:Chapter 06 01:22:05.216 : en:Chapter 07 01:36:19.738 : en:Chapter 08 01:50:58.575 : en:Chapter 09 02:04:17.415 : en:Chapter 10 02:17:52.939 : en:Chapter 11 02:27:14.000 : en:Chapter 12 02:39:02.792 : en:Chapter 13

    疾速追杀4 4k(2023年)
    8.0
    ①网盘资源信息:疾速追杀4 4k.John.Wick.Chapter.4.2023.2160p.WEB-DL.DDP5.1.Atmos.HDR10Plus.H.265【HDR 29.57 GB】
    剧情简介:刺客约翰·威克的冒险仍在继续。
    6.1

    2023-5-16 17:11/4K(3840x2160)

    雷霆沙赞!众神之怒4K

    DIY蓝光原盘版本信息 DISC INFO: Disc Title: Shazam! Fury of the Gods Disc Label: Shazam! Fury of the Gods 2023 UHD Blu-ray 2160p HEVC Atmos TrueHD 7.1 Disc Size: 69,995,982,969 bytes Protection: AACS2 Extras: Ultra HD, BD-Java BDInfo: 0.7.5.8 PLAYLIST REPORT: Name: 00800.MPLS Length: 2:10:15.641 (h:m:s.ms) Size: 68,196,695,040 bytes Total Bitrate: 69.81 Mbps (*) Indicates included stream hidden by this playlist. VIDEO: Codec Bitrate Description ----- ------- ----------- MPEG-H HEVC Video 58787 kbps 2160p / 4KSJ 23.976 fps / 16:9 / Main 10 @ Level 5.1 @ High / 10 bits / HDR10 / BT.2020 * MPEG-H HEVC Video 69 kbps 1080p / 23.976 fps / 16:9 / Main 10 @ Level 5.1 @ High / 10 bits / Dolby Vision / BT.2020 AUDIO: Codec Language Bitrate Description ----- -------- ------- ----------- Dolby TrueHD/Atmos Audio English 3431 kbps 7.1 / 48 kHz / 2983 kbps / 16-bit (AC3 Embedded: 5.1 / 48 kHz / 448 kbps / DN -27dB) Dolby Digital Audio English 640 kbps 5.1 / 48 kHz / 640 kbps / DN -31dB Dolby Digital Audio English 640 kbps 5.1 / 48 kHz / 640 kbps / DN -31dB Dolby Digital Audio English 192 kbps 2.0 / 48 kHz / 192 kbps / DN -31dB / Dolby Surround Dolby Digital Audio French 640 kbps 5.1 / 48 kHz / 640 kbps / DN -31dB Dolby Digital Audio Spanish 640 kbps 5.1 / 48 kHz / 640 kbps / DN -31dB Dolby Digital Audio English 192 kbps 2.0 / 48 kHz / 192 kbps / DN -31dB / Dolby Surround SUBTITLES: Codec Language Bitrate Description ----- -------- ------- ----------- Presentation Graphics English 41.889 kbps Presentation Graphics French 25.308 kbps Presentation Graphics Spanish 31.625 kbps Presentation Graphics Danish 24.485 kbps Presentation Graphics Finnish 29.337 kbps Presentation Graphics Norwegian 26.972 kbps Presentation Graphics Swedish 25.423 kbps Presentation Graphics Chinese 26.282 kbps 简体中文 Presentation Graphics Chinese 26.538 kbps 繁体中文 Presentation Graphics Chinese 48.889 kbps 简英双语 Presentation Graphics Chinese 49.147 kbps 繁英双语 Presentation Graphics French 0.378 kbps Presentation Graphics Spanish 0.813 kbps FILES: Name Time In Length Size Total Bitrate ---- ------- ------ ---- ------------- 00014.M2TS 0:00:00.000 2:10:15.641 68,196,695,040 69,805

    ①网盘资源信息:
    剧情简介:比利·巴特森和其他孩子们虽然获得了超凡的神力和成人的外表,但仍处在青春期的他们还在学习如何平衡内心与外在的不同。但是当阿特拉斯的女儿——复仇三女神来到地球,寻找很久以前被偷走的神力时,比利·巴特森和家人们将为了守护他们的超能力、生命以及整个世界的命运而展开一场激战。
    7.7

    2023-5-27 23:00/4K(3840x2160)

    龙与地下城:侠盗荣耀4k

    DISC INFO: Disc Title: Dungeons.and.Dragons.Honor.Among.Thieves.2023.COMPLETE.UHD.BLURAY-B0MBARDiERS Disc Size: 92,516,224,169 bytes Protection: AACS2 Extras: Ultra HD, BD-Java BDInfo: 0.7.6.1 (compatible layout created by DVDFab 12.1.0.6) PLAYLIST REPORT: Name: 00040.MPLS Length: 2:14:08.123 (h:m:s.ms) Size: 82,227,247,104 bytes Total Bitrate: 81.74 Mbps (*) Indicates included stream hidden by this playlist. VIDEO: Codec Bitrate Description ----- ------- ----------- MPEG-H HEVC Video 62552 kbps 2160p / 23.976 fps / 16:9 / Main 10 @ Level 5.1 @ High / 4:2:0 / 10 bits / 1000nits / HDR10 / BT.2020 * MPEG-H HEVC Video 4002 kbps (6.01%) 1080p / 23.976 fps / 16:9 / Main 10 @ Level 5.1 @ High / 4:2:0 / 10 bits / 1000nits / Dolby Vision FEL / BT.2020 AUDIO: Codec Language Bitrate Description ----- -------- ------- ----------- Dolby TrueHD/Atmos Audio English 4987 kbps 7.1+11 objects / 48 kHz / 4347 kbps / 24-bit (AC3 Core: 5.1-EX / 48 kHz / 640 kbps) Dolby Digital Audio English 640 kbps 5.1 / 48 kHz / 640 kbps Dolby Digital Audio Spanish 640 kbps 5.1 / 48 kHz / 640 kbps Dolby Digital Audio Spanish 640 kbps 5.1 / 48 kHz / 640 kbps Dolby Digital Audio French 640 kbps 5.1 / 48 kHz / 640 kbps Dolby Digital Audio French 640 kbps 5.1 / 48 kHz / 640 kbps Dolby Digital Audio Italian 640 kbps 5.1 / 48 kHz / 640 kbps Dolby Digital Audio Japanese 640 kbps 5.1 / 48 kHz / 640 kbps SUBTITLES: Codec Language Bitrate Description ----- -------- ------- ----------- Presentation Graphics English 37.745 kbps Presentation Graphics English 43.304 kbps Presentation Graphics Chinese 26.777 kbps Presentation Graphics Czech 32.39 kbps Presentation Graphics Danish 34.382 kbps Presentation Graphics Spanish 36.821 kbps Presentation Graphics Spanish 35.728 kbps Presentation Graphics French 30.025 kbps Presentation Graphics French 37.698 kbps Presentation Graphics Italian 37.29 kbps Presentation Graphics Japanese 24.093 kbps Presentation Graphics Korean 24.881 kbps Presentation Graphics Chinese 25.362 kbps Presentation Graphics Dutch 35.723 kbps Presentation Graphics Norwegian 33.221 kbps Presentation Graphics Polish 33.961 kbps Presentation Graphics Chinese 31.876 kbps Presentation Graphics Slovak 34.975 kbps Presentation Graphics Finnish 37.487 kbps Presentation Graphics Swedish 33.336 kbps Presentation Graphics Japanese 0.296 kbps

    ①网盘资源信息:
    剧情简介:艾德金(克里斯·派恩 Chris Pine 饰)是一名吟游诗人,在一次盗宝行动中,他的贪婪导致了妻子的死亡。之后,野蛮人霍尔盖(米歇尔·罗德里格兹 Michelle Rodriguez 饰)出现在了颓废的艾德金身边,和他共同抚养女儿琪拉(克洛伊·科尔曼 Chloe Coleman 饰)。   琪拉长大之后,艾德金、霍尔盖带着琪拉和她的舅舅福奇(休·格兰特 Hugh Grant 饰)等人组成了一支盗宝团队,哪知道在一次行动之中失手了,最终,艾德金和霍尔盖锒铛入狱。一晃眼多年过去,艾德金和霍尔盖联手越狱,并且决定夺回他们当年未得手的宝物,为了达成目的,他们还吸纳了菜鸟术士西蒙(贾斯蒂斯·史密斯 Justice Smith 饰)和德鲁伊女孩多立克(索菲娅·莉莉丝 Sophia Lillis 饰)。就在艾德金一行人离宝物越来越近之际,当年带着琪拉逃跑的福奇,他的真面目也渐渐的展露了出来。
2015-2023 www.4ksj.com  4K世界 |网站地图
京ICP证160991号 京公网安备11010802015683号 Copyright ©2023 All Rights Reserved.
    *本站提供的所有电影资源均来自互联网,仅限交流使用,请在下载后的2小时内删除,所有版权皆属原公司所有,如果认为本站侵犯了您的版权,请告知,我们会立即删除。