注册/登陆
游客您好
第三方账号登陆
我还是我:迈克尔·J·福克斯4k.STILL.A.Michael.J.Fox.Movie.2023.2160p.电影下载
[复制链接]
2023-05-12 发布
  • 4K大师玩家
  • 20
  • 3445
静待花开 发表于 2023-5-12 13:39:35 |阅读模式 打印 上一主题 下一主题

我还是我:迈克尔·J·福克斯4k
2023年(豆瓣:0)
  • 电影声道:5.1声道 
  • 电影语言:中文简体   中文繁体   英文字幕   
  • 画质标准 HDR 
  • 资源版本  
  • 帧数/FPS:23.976 Fps
    发布排行: 第部4K原盘
    导  演:戴维斯·古根海姆
    制片国家:美国 
    电影分类:纪录片 传记 
    分 辨 率:4K(3840x2160)
简介 迈克尔·J·福克斯,一个来自加拿大的小子,成为了1980年代国际流行文化的宠儿。他的人生轨迹因惊人的诊断而改变。当无法治愈的乐观主义者面对无法治愈的疾病(帕金森氏症)时会发生什么事?
  • 网盘①


    提取码①
    无链接, 或无权限
    网盘②


    访问码②
    中文字幕


    BT种子 / 磁力链下载
  • 电影信息INFO
    Video
    ID : 1
    Format : HEVC
    Format/Info : High Efficiency Video Coding
    Format profile : Main 10@L5@High
    HDR format : Dolby Vision, Version 1.0, dvhe.08.07, BL+RPU, HDR10 compatible / SMPTE ST 2094 App 4, Version 1, HDR10+ Profile B compatible
    Codec ID : V_MPEGH/ISO/HEVC
    Duration : 1 h 34 min
    Bit rate : 23.2 Mb/s
    Width : 3 840 pixels
    Height : 2 160 pixels
    Display aspect ratio : 16:9
    Frame rate mode : Constant
    Frame rate : 23.976 (24000/1001) FPS
    Color space : YUV
    Chroma subsampling : 4:2:0 (Type 2)
    Bit depth : 10 bits
    Bits/(Pixel*Frame) : 0.117
    Stream size : 15.3 GiB (97%)
    Language : English
    Default : Yes
    Forced : No
    Color range : Limited
    Color primaries : BT.2020
    Transfer characteristics : PQ
    Matrix coefficients : BT.2020 non-constant
    Mastering display color primaries : Display P3
    Mastering display luminance : min: 0.0050 cd/m2, max: 1000 cd/m2
    Maximum Content Light Level : 1428 cd/m2
    Maximum Frame-Average Light Level : 215 cd/m2

    Audio
    ID : 2
    Format : E-AC-3 JOC
    Format/Info : Enhanced AC-3 with Joint Object Coding
    Commercial name : Dolby Digital Plus with Dolby Atmos
    Codec ID : A_EAC3
    Duration : 1 h 34 min
    Bit rate mode : Constant
    Bit rate : 768 kb/s
    Channel(s) : 6 channels
    Channel layout : L R C LFE Ls Rs
    Sampling rate : 48.0 kHz
    Frame rate : 31.250 FPS (1536 SPF)
    Compression mode : Lossy
    Stream size : 519 MiB (3%)
    Language : English
    Service kind : Complete Main
    Default : Yes
    Forced : No
    Complexity index : 16
    Number of dynamic objects : 15
    Bed channel count : 1 channel
    Bed channel configuration : LFE

    Text #1
    ID : 3
    Format : UTF-8
    Codec ID : S_TEXT/UTF8
    Codec ID/Info : UTF-8 Plain Text
    Duration : 1 h 25 min
    Bit rate : 88 b/s
    Frame rate : 0.251 FPS
    Count of elements : 1288
    Stream size : 55.5 KiB (0%)
    Language : English
    Default : No
    Forced : No

    Text #2
    ID : 4
    Format : UTF-8
    Codec ID : S_TEXT/UTF8
    Codec ID/Info : UTF-8 Plain Text
    Duration : 1 h 25 min
    Bit rate : 101 b/s
    Frame rate : 0.277 FPS
    Count of elements : 1426
    Stream size : 63.5 KiB (0%)
    Title : SDH
    Language : English
    Default : No
    Forced : No

    Text #3
    ID : 5
    Format : UTF-8
    Codec ID : S_TEXT/UTF8
    Codec ID/Info : UTF-8 Plain Text
    Duration : 1 h 33 min
    Bit rate : 114 b/s
    Frame rate : 0.241 FPS
    Count of elements : 1356
    Stream size : 78.7 KiB (0%)
    Language : Arabic
    Default : No
    Forced : No

    Text #4
    ID : 6
    Format : UTF-8
    Codec ID : S_TEXT/UTF8
    Codec ID/Info : UTF-8 Plain Text
    Duration : 1 h 33 min
    Bit rate : 103 b/s
    Frame rate : 0.191 FPS
    Count of elements : 1077
    Stream size : 71.2 KiB (0%)
    Language : Bulgarian
    Default : No
    Forced : No

    Text #5
    ID : 7
    Format : UTF-8
    Codec ID : S_TEXT/UTF8
    Codec ID/Info : UTF-8 Plain Text
    Duration : 1 h 33 min
    Bit rate : 65 b/s
    Frame rate : 0.241 FPS
    Count of elements : 1355
    Stream size : 45.2 KiB (0%)
    Title : Simplified
    Language : Chinese (Simplied)
    Default : No
    Forced : No

    Text #6
    ID : 8
    Format : UTF-8
    Codec ID : S_TEXT/UTF8
    Codec ID/Info : UTF-8 Plain Text
    Duration : 1 h 33 min
    Bit rate : 66 b/s
    Frame rate : 0.241 FPS
    Count of elements : 1357
    Stream size : 45.7 KiB (0%)
    Title : Traditional
    Language : Chinese (Traditional)
    Default : No
    Forced : No

    Text #7
    ID : 9
    Format : UTF-8
    Codec ID : S_TEXT/UTF8
    Codec ID/Info : UTF-8 Plain Text
    Duration : 1 h 33 min
    Bit rate : 68 b/s
    Frame rate : 0.224 FPS
    Count of elements : 1259
    Stream size : 47.3 KiB (0%)
    Language : Czech
    Default : No
    Forced : No

    Text #8
    ID : 10
    Format : UTF-8
    Codec ID : S_TEXT/UTF8
    Codec ID/Info : UTF-8 Plain Text
    Duration : 1 h 33 min
    Bit rate : 79 b/s
    Frame rate : 0.229 FPS
    Count of elements : 1290
    Stream size : 54.5 KiB (0%)
    Language : Danish
    Default : No
    Forced : No

    Text #9
    ID : 11
    Format : UTF-8
    Codec ID : S_TEXT/UTF8
    Codec ID/Info : UTF-8 Plain Text
    Duration : 1 h 33 min
    Bit rate : 71 b/s
    Frame rate : 0.211 FPS
    Count of elements : 1189
    Stream size : 49.5 KiB (0%)
    Language : German
    Default : No
    Forced : No

    Text #10
    ID : 12
    Format : UTF-8
    Codec ID : S_TEXT/UTF8
    Codec ID/Info : UTF-8 Plain Text
    Duration : 1 h 33 min
    Bit rate : 126 b/s
    Frame rate : 0.223 FPS
    Count of elements : 1255
    Stream size : 86.8 KiB (0%)
    Language : Greek
    Default : No
    Forced : No

    Text #11
    ID : 13
    Format : UTF-8
    Codec ID : S_TEXT/UTF8
    Codec ID/Info : UTF-8 Plain Text
    Duration : 1 h 33 min
    Bit rate : 69 b/s
    Frame rate : 0.225 FPS
    Count of elements : 1265
    Stream size : 47.9 KiB (0%)
    Title : Latin American
    Language : Spanish (Latin America)
    Default : No
    Forced : No

    Text #12
    ID : 14
    Format : UTF-8
    Codec ID : S_TEXT/UTF8
    Codec ID/Info : UTF-8 Plain Text
    Duration : 1 h 33 min
    Bit rate : 70 b/s
    Frame rate : 0.233 FPS
    Count of elements : 1315
    Stream size : 48.8 KiB (0%)
    Language : Spanish (ES)
    Default : No
    Forced : No

    Text #13
    ID : 15
    Format : UTF-8
    Codec ID : S_TEXT/UTF8
    Codec ID/Info : UTF-8 Plain Text
    Duration : 1 h 33 min
    Bit rate : 72 b/s
    Frame rate : 0.224 FPS
    Count of elements : 1260
    Stream size : 49.8 KiB (0%)
    Language : Estonian
    Default : No
    Forced : No

    Text #14
    ID : 16
    Format : UTF-8
    Codec ID : S_TEXT/UTF8
    Codec ID/Info : UTF-8 Plain Text
    Duration : 1 h 33 min
    Bit rate : 70 b/s
    Frame rate : 0.236 FPS
    Count of elements : 1332
    Stream size : 48.3 KiB (0%)
    Language : Finnish
    Default : No
    Forced : No

    Text #15
    ID : 17
    Format : UTF-8
    Codec ID : S_TEXT/UTF8
    Codec ID/Info : UTF-8 Plain Text
    Duration : 1 h 33 min
    Bit rate : 65 b/s
    Frame rate : 0.229 FPS
    Count of elements : 1289
    Stream size : 45.1 KiB (0%)
    Title : Canadian
    Language : French (CA)
    Default : No
    Forced : No

    Text #16
    ID : 18
    Format : UTF-8
    Codec ID : S_TEXT/UTF8
    Codec ID/Info : UTF-8 Plain Text
    Duration : 1 h 33 min
    Bit rate : 65 b/s
    Frame rate : 0.229 FPS
    Count of elements : 1289
    Stream size : 45.1 KiB (0%)
    Language : French (FR)
    Default : No
    Forced : No

    Text #17
    ID : 19
    Format : UTF-8
    Codec ID : S_TEXT/UTF8
    Codec ID/Info : UTF-8 Plain Text
    Duration : 1 h 33 min
    Bit rate : 108 b/s
    Frame rate : 0.241 FPS
    Count of elements : 1356
    Stream size : 74.8 KiB (0%)
    Language : Hebrew
    Default : No
    Forced : No

    Text #18
    ID : 20
    Format : UTF-8
    Codec ID : S_TEXT/UTF8
    Codec ID/Info : UTF-8 Plain Text
    Duration : 1 h 33 min
    Bit rate : 204 b/s
    Frame rate : 0.241 FPS
    Count of elements : 1356
    Stream size : 140 KiB (0%)
    Language : Hindi
    Default : No
    Forced : No

    Text #19
    ID : 21
    Format : UTF-8
    Codec ID : S_TEXT/UTF8
    Codec ID/Info : UTF-8 Plain Text
    Duration : 1 h 33 min
    Bit rate : 73 b/s
    Frame rate : 0.238 FPS
    Count of elements : 1339
    Stream size : 50.2 KiB (0%)
    Language : Hungarian
    Default : No
    Forced : No

    Text #20
    ID : 22
    Format : UTF-8
    Codec ID : S_TEXT/UTF8
    Codec ID/Info : UTF-8 Plain Text
    Duration : 1 h 33 min
    Bit rate : 78 b/s
    Frame rate : 0.238 FPS
    Count of elements : 1341
    Stream size : 54.1 KiB (0%)
    Language : Indonesian
    Default : No
    Forced : No

    Text #21
    ID : 23
    Format : UTF-8
    Codec ID : S_TEXT/UTF8
    Codec ID/Info : UTF-8 Plain Text
    Duration : 1 h 33 min
    Bit rate : 71 b/s
    Frame rate : 0.234 FPS
    Count of elements : 1320
    Stream size : 49.5 KiB (0%)
    Language : Italian
    Default : No
    Forced : No

    Text #22
    ID : 24
    Format : UTF-8
    Codec ID : S_TEXT/UTF8
    Codec ID/Info : UTF-8 Plain Text
    Duration : 1 h 33 min
    Bit rate : 62 b/s
    Frame rate : 0.235 FPS
    Count of elements : 1323
    Stream size : 43.1 KiB (0%)
    Language : Japanese
    Default : No
    Forced : No

    Text #23
    ID : 25
    Format : UTF-8
    Codec ID : S_TEXT/UTF8
    Codec ID/Info : UTF-8 Plain Text
    Duration : 1 h 33 min
    Bit rate : 82 b/s
    Frame rate : 0.241 FPS
    Count of elements : 1358
    Stream size : 56.8 KiB (0%)
    Language : Korean
    Default : No
    Forced : No

    Text #24
    ID : 26
    Format : UTF-8
    Codec ID : S_TEXT/UTF8
    Codec ID/Info : UTF-8 Plain Text
    Duration : 1 h 33 min
    Bit rate : 74 b/s
    Frame rate : 0.239 FPS
    Count of elements : 1347
    Stream size : 51.3 KiB (0%)
    Language : Lithuanian
    Default : No
    Forced : No

    Text #25
    ID : 27
    Format : UTF-8
    Codec ID : S_TEXT/UTF8
    Codec ID/Info : UTF-8 Plain Text
    Duration : 1 h 33 min
    Bit rate : 76 b/s
    Frame rate : 0.238 FPS
    Count of elements : 1343
    Stream size : 52.5 KiB (0%)
    Language : Latvian
    Default : No
    Forced : No

    Text #26
    ID : 28
    Format : UTF-8
    Codec ID : S_TEXT/UTF8
    Codec ID/Info : UTF-8 Plain Text
    Duration : 1 h 33 min
    Bit rate : 77 b/s
    Frame rate : 0.238 FPS
    Count of elements : 1338
    Stream size : 53.5 KiB (0%)
    Language : Malay
    Default : No
    Forced : No

    Text #27
    ID : 29
    Format : UTF-8
    Codec ID : S_TEXT/UTF8
    Codec ID/Info : UTF-8 Plain Text
    Duration : 1 h 33 min
    Bit rate : 59 b/s
    Frame rate : 0.177 FPS
    Count of elements : 997
    Stream size : 41.0 KiB (0%)
    Language : Dutch
    Default : No
    Forced : No

    Text #28
    ID : 30
    Format : UTF-8
    Codec ID : S_TEXT/UTF8
    Codec ID/Info : UTF-8 Plain Text
    Duration : 1 h 33 min
    Bit rate : 69 b/s
    Frame rate : 0.209 FPS
    Count of elements : 1180
    Stream size : 47.5 KiB (0%)
    Language : Norwegian
    Default : No
    Forced : No

    Text #29
    ID : 31
    Format : UTF-8
    Codec ID : S_TEXT/UTF8
    Codec ID/Info : UTF-8 Plain Text
    Duration : 1 h 33 min
    Bit rate : 74 b/s
    Frame rate : 0.233 FPS
    Count of elements : 1315
    Stream size : 51.4 KiB (0%)
    Language : Polish
    Default : No
    Forced : No

    Text #30
    ID : 32
    Format : UTF-8
    Codec ID : S_TEXT/UTF8
    Codec ID/Info : UTF-8 Plain Text
    Duration : 1 h 33 min
    Bit rate : 83 b/s
    Frame rate : 0.238 FPS
    Count of elements : 1343
    Stream size : 57.7 KiB (0%)
    Language : Portuguese
    Default : No
    Forced : No

    Text #31
    ID : 33
    Format : UTF-8
    Codec ID : S_TEXT/UTF8
    Codec ID/Info : UTF-8 Plain Text
    Duration : 1 h 33 min
    Bit rate : 67 b/s
    Frame rate : 0.224 FPS
    Count of elements : 1263
    Stream size : 46.1 KiB (0%)
    Title : Brazilian
    Language : Portuguese (BR)
    Default : No
    Forced : No

    Text #32
    ID : 34
    Format : UTF-8
    Codec ID : S_TEXT/UTF8
    Codec ID/Info : UTF-8 Plain Text
    Duration : 1 h 33 min
    Bit rate : 115 b/s
    Frame rate : 0.228 FPS
    Count of elements : 1285
    Stream size : 79.2 KiB (0%)
    Language : Russian
    Default : No
    Forced : No

    Text #33
    ID : 35
    Format : UTF-8
    Codec ID : S_TEXT/UTF8
    Codec ID/Info : UTF-8 Plain Text
    Duration : 1 h 33 min
    Bit rate : 72 b/s
    Frame rate : 0.237 FPS
    Count of elements : 1334
    Stream size : 50.1 KiB (0%)
    Language : Slovak
    Default : No
    Forced : No

    Text #34
    ID : 36
    Format : UTF-8
    Codec ID : S_TEXT/UTF8
    Codec ID/Info : UTF-8 Plain Text
    Duration : 1 h 33 min
    Bit rate : 60 b/s
    Frame rate : 0.194 FPS
    Count of elements : 1094
    Stream size : 41.3 KiB (0%)
    Language : Slovenian
    Default : No
    Forced : No

    Text #35
    ID : 37
    Format : UTF-8
    Codec ID : S_TEXT/UTF8
    Codec ID/Info : UTF-8 Plain Text
    Duration : 1 h 33 min
    Bit rate : 73 b/s
    Frame rate : 0.237 FPS
    Count of elements : 1334
    Stream size : 50.8 KiB (0%)
    Language : Swedish
    Default : No
    Forced : No

    Text #36
    ID : 38
    Format : UTF-8
    Codec ID : S_TEXT/UTF8
    Codec ID/Info : UTF-8 Plain Text
    Duration : 1 h 33 min
    Bit rate : 254 b/s
    Frame rate : 0.241 FPS
    Count of elements : 1357
    Stream size : 175 KiB (0%)
    Language : Tamil
    Default : No
    Forced : No

    Text #37
    ID : 39
    Format : UTF-8
    Codec ID : S_TEXT/UTF8
    Codec ID/Info : UTF-8 Plain Text
    Duration : 1 h 33 min
    Bit rate : 223 b/s
    Frame rate : 0.241 FPS
    Count of elements : 1357
    Stream size : 153 KiB (0%)
    Language : Telugu
    Default : No
    Forced : No

    Text #38
    ID : 40
    Format : UTF-8
    Codec ID : S_TEXT/UTF8
    Codec ID/Info : UTF-8 Plain Text
    Duration : 1 h 33 min
    Bit rate : 183 b/s
    Frame rate : 0.240 FPS
    Count of elements : 1350
    Stream size : 126 KiB (0%)
    Language : Thai
    Default : No
    Forced : No

    Text #39
    ID : 41
    Format : UTF-8
    Codec ID : S_TEXT/UTF8
    Codec ID/Info : UTF-8 Plain Text
    Duration : 1 h 33 min
    Bit rate : 78 b/s
    Frame rate : 0.233 FPS
    Count of elements : 1314
    Stream size : 54.2 KiB (0%)
    Language : Turkish
    Default : No
    Forced : No

    Text #40
    ID : 42
    Format : UTF-8
    Codec ID : S_TEXT/UTF8
    Codec ID/Info : UTF-8 Plain Text
    Duration : 1 h 33 min
    Bit rate : 115 b/s
    Frame rate : 0.240 FPS
    Count of elements : 1353
    Stream size : 79.3 KiB (0%)
    Language : Ukrainian
    Default : No
    Forced : No

    Text #41
    ID : 43
    Format : UTF-8
    Codec ID : S_TEXT/UTF8
    Codec ID/Info : UTF-8 Plain Text
    Duration : 1 h 33 min
    Bit rate : 97 b/s
    Frame rate : 0.238 FPS
    Count of elements : 1343
    Stream size : 67.0 KiB (0%)
    Language : Vietnamese
    Default : No
    Forced : No

    Text #42
    ID : 44
    Format : UTF-8
    Codec ID : S_TEXT/UTF8
    Codec ID/Info : UTF-8 Plain Text
    Duration : 1 h 33 min
    Bit rate : 61 b/s
    Frame rate : 0.241 FPS
    Count of elements : 1356
    Stream size : 42.1 KiB (0%)
    Title : Traditional
    Language : Cantonese (Hant)
    Default : No
    Forced : No

我还是我:米高福克斯/我还是我:迈克尔·J·福克斯4k.STILL.A.Michael.J.Fox.Movie.2023.2160p.ATVP.WEB-DL.x265.10bit.HDR.DDP5.1.Atmos-4k电影下载

我还是我:迈克尔·J·福克斯4k.STILL.A.Michael.J.Fox.Movie.2023.2160p.ATVP.WEB-DL.x265.10bit.HDR.DDP5.1.Atmos【简繁中字】【15.84 GB】
磁力链免费下载:
magnet:?xt=urn:btih:5c7dde9d74f1415ccf6b756925a461e3ce9bd9e0&dn

我还是我:迈克尔·J·福克斯4k.STILL.A.Michael.J.Fox.Movie.2023.2160p.ATVP.WEB-DL.x265.10bit.SDR.DDP5.1.Atmos【简繁中字】【13.71 GB】
磁力链
免费下载:magnet:?xt=urn:btih:8b83f8fec2102860dfd6e1c62756325a9a29670c&dn

我还是我:迈克尔·J·福克斯4k.STILL.A.Michael.J.Fox.Movie.2023.2160p.ATVP.WEB-DL.DDP5.1.Atmos.DV.MP4.x265【杜比视界】【15.95 GB】
磁力链
免费下载:magnet:?xt=urn:btih:3952ab63d6f8ce77b8e26f3fc8c7bcad42d4ddf2&dn

我还是我:迈克尔·J·福克斯4k.STILL.A.Michael.J.Fox.Movie.2023.2160p.ATVP.WEB-DL.DDP5.1.Atmos.DV.MKV.x265【杜比视界】【15.95 GB】
磁力链
免费下载:magnet:?xt=urn:btih:4e8fde890c30cd4c7e52dc6d2fefe495ffb6f25f&dn

精彩评论9

hyjyhj 发表于 2023-5-12 21:30:24
真好啊谢谢分享
回复 支持 反对

使用道具 举报

a2659649 发表于 2023-5-13 16:46:37
谢谢分享
回复 支持 反对

使用道具 举报

ps8 发表于 2023-5-17 17:22:25
谢谢分享XXXX  
回复 支持 反对

使用道具 举报

thliushu 发表于 2023-5-23 13:06:10
感谢分享。
回复 支持 反对

使用道具 举报

面积哈啊 发表于 2023-6-2 18:32:19
感谢分享
回复 支持 反对

使用道具 举报

面积哈啊 发表于 2023-6-3 21:36:25

感谢分享
回复 支持 反对

使用道具 举报

ktime 发表于 2023-6-11 21:56:54
回复 支持 反对

使用道具 举报

您需要登录后才可以回帖 登录 | 立即注册

本版积分规则

推荐影视全站推荐影视下载
  • 6.8

    7 天前/4K(3840x2160)

    哥斯拉大战金刚2:帝国崛起4k

    DISC INFO: Disc Title: Godzilla x Kong: The New Empire Disc Label: Godzilla x Kong The New Empire 2024 UHD Blu-ray 2160p HEVC Atmos TrueHD 7.1-4KSJ Disc Size: 81,435,247,517 bytes Protection: AACS2 Extras: Ultra HD, BD-Java BDInfo: 0.7.5.7 PLAYLIST REPORT: Name: 00800.MPLS Length: 1:54:40.415 (h:m:s.ms) Size: 72,731,553,792 bytes Total Bitrate: 84.57 Mbps (*) Indicates included stream hidden by this playlist. VIDEO: Codec Bitrate Description ----- ------- ----------- MPEG-H HEVC Video 70797 kbps 2160p / 23.976 fps / 16:9 / Main 10 @ Level 5.1 @ High / 10 bits / HDR10 / BT.2020 * MPEG-H HEVC Video 2101 kbps 1080p / 23.976 fps / 16:9 / Main 10 @ Level 5.1 @ High / 10 bits / Dolby Vision / BT.2020 AUDIO: Codec Language Bitrate Description ----- -------- ------- ----------- Dolby TrueHD/Atmos Audio English 3486 kbps 7.1 / 48 kHz / 3038 kbps / 16-bit (AC3 Embedded: 5.1 / 48 kHz / 448 kbps / DN -27dB) Dolby Digital Audio English 640 kbps 5.1 / 48 kHz / 640 kbps / DN -31dB Dolby Digital Audio English 640 kbps 5.1 / 48 kHz / 640 kbps / DN -31dB Dolby Digital Audio French 640 kbps 5.1 / 48 kHz / 640 kbps / DN -31dB Dolby Digital Audio Spanish 640 kbps 5.1 / 48 kHz / 640 kbps / DN -31dB Dolby Digital Audio Chinese 384 kbps 2.0 / 48 kHz / 384 kbps / DN -31dB 普通话 Dolby Digital Audio English 192 kbps 2.0 / 48 kHz / 192 kbps / DN -31dB SUBTITLES: Codec Language Bitrate Description ----- -------- ------- ----------- Presentation Graphics English 30.465 kbps Presentation Graphics French 16.089 kbps Presentation Graphics Spanish 19.400 kbps Presentation Graphics Chinese 17.484 kbps 简体国配 Presentation Graphics Chinese 17.731 kbps 繁体国配 Presentation Graphics Chinese 30.267 kbps 简英双语 Presentation Graphics Chinese 30.516 kbps 繁英双语 Presentation Graphics French 1.596 kbps Presentation Graphics Spanish 1.792 kbps FILES: Name Time In Length Size Total Bitrate ---- ------- ------ ---- ------------- 00075.M2TS 0:00:00.000 1:54:40.415 72,731,553,792 84,566

    ①网盘资源信息:
    剧情简介:继上一次的怪兽高燃对战之后,金刚和哥斯拉将再度联手对抗一个潜伏在世界中的巨大威胁,并逐步探索这些巨兽们的起源以及骷髅岛等地的奥秘。同时,上古之战的面纱也将会被揭晓,而正是那场战斗创造出了这些超凡的生物,并深刻影响了人类世界的命运。

    3 天前/4K(3840x2160)

    暗影守卫4k

    DISC INFO Disc Title: Born to Kill Disc Label: 暗影守卫.Darkness.of.Man.2024.GER.UHD.Blu-ray.2160p.DV.HEVC.DTS-HD.MA.5.1-4KSJ Disc Size: 62,593,686,033 bytes Protection: AACS2 Extras: Ultra HD BDInfo: 0.7.5.5 PLAYLIST REPORT: Name: 00000.MPLS Length: 1:48:53.902 (h:m:s.ms) Size: 60,046,932,288 bytes Total Bitrate: 73.52 Mbps (*) Indicates included stream hidden by this playlist. VIDEO: Codec Bitrate Description ----- ------- ----------- MPEG-H HEVC Video 62545 kbps 2160p / 23.976 fps hao4k/ 16:9 / Main 10 @ Level 5.1 @ High / 10 bits / HDR10 / BT.2020 * MPEG-H HEVC Video 67 kbps 1080p / 23.976 fps / 16:9 / Main 10 @ Level 5.1 @ High / 10 bits / Dolby Vision / BT.2020 AUDIO: Codec Language Bitrate Description ----- -------- ------- ----------- DTS-HD Master Audio German 3624 kbps 5.1 / 48 kHz / 3624 kbps / 24-bit (DTS Core: 5.1 / 48 kHz / 1509 kbps / 24-bit) DTS-HD Master Audio English 3544 kbps 5.1 / 48 kHz / 3544 kbps / 24-bit (DTS Core: 5.1 / 48 kHz / 1509 kbps / 24-bit) SUBTITLES: Codec Language Bitrate Description ----- -------- ------- ----------- Presentation Graphics German 0.207 kbps Presentation Graphics German 25.266 kbps Presentation Graphics English 0.767 kbps Presentation Graphics Chinese 18.343 kbps 简体中文 Presentation Graphics Chinese 32.032 kbps 简英双语 Presentation Graphics Chinese 18.933 kbps 繁体中文 Presentation Graphics Chinese 32.626 kbps 繁英双语 FILES: Name Time In Length Size Total Bitrate ---- ------- ------ ---- ------------- 00000.M2TS 0:00:00.000 1:48:53.902 60,046,932,288 73,520

    暗影守卫4k(2024年)
    ①网盘资源信息:
    剧情简介: 罗素·哈奇(尚格云顿)是国际刑警组织的特工,他承担起了对杰登的父亲形象的角色,因为杰登的生父在一次例行突袭中丧生。多年后,哈奇发现自己保护着的杰登和他的祖父,正在正面临一群无情的帮派之间的全面领土争夺战;哈奇为此不惜一切来保护杰登,并与任何妨碍他的人战斗。

    6 天前/4K(3840x2160)

    制暴4k

    General............: Curbing.Violence.2024.2160p.WEB-DL.H265.DV.DDP5.1.Atmos-4ksj Duration...........: 01:39:53.070 (HH:MM:SS:FF) RELEASE.SIZE.......: 11.0 GiB VIDEO.CODEC........: HEVC Main 10@L5@High Dolby Vision, Version 1.0, dvhe.05.06, BL+RPU FRAMERATE..........: 24.000 fps VIDEO.BITRATE......: 14.7 Mb/s RESOLUTION.........: 3840 x 1608 ASPECT.RATIO.......: 2.40:1 Audio..............: E-AC-3 6 channels 768 kb/s Chinese Mandarin [DDP5.1 Atmos] Audio..............: AAC 2 channels 256 kb/s Chinese Mandarin [AAC2.0]

    制暴4k(2024年)
    ①网盘资源信息:
    剧情简介:某集团董事长成杰(包贝尔 饰)受“大师”指点,需与一名女子发生关系为自己转运;他将目标锁定为自己公司员工“单亲妈妈”韩梅,强暴伤害其致植物人,事后却在媒体面前谎称是对方勾引自己,并让怀孕的妻子配合演戏,成功扭转舆论。韩梅的姐妹女警邱一昭(蒋璐霞 饰)坚信成杰在说谎并开启调查,在取证过程中受到恶势力的重重阻碍,而成杰人面兽心的丑恶面目也逐渐浮出水面,为姐妹也为正义,即便步步身陷险境,她仍决意与对方死磕到底!
    5.4

    5 天前/4K(3840x2160)

    寒鸦4k

    Disc Title: Jackdaw - UHD Blu-ray™ Disc Label: Jackdaw.2023.2160p.GER.UHD.Blu-ray.HEVC.DTS-HD.MA 5.1-4ksj Disc Size: 47,626,664,791 bytes Protection: AACS2 Playlist: 00001.MPLS Size: 45,155,887,104 bytes Length: 1:37:04.985 Total Bitrate: 62.02 Mbps Video: MPEG-H HEVC Video / 55061 kbps / 2160p / 23.976 fps / 16:9 / Main 10 @ Level 5.1 @ High / 10 bits / BT.709 Audio: German / DTS-HD Master Audio / 5.1 / 48 kHz / 1913 kbps / 16-bit (DTS Core: 5.1 / 48 kHz / 1509 kbps / 16-bit) Audio: English / DTS-HD Master Audio / 5.1 / 48 kHz / 1901 kbps / 16-bit (DTS Core: 5.1 / 48 kHz / 1509 kbps / 16-bit) Subtitle: German / 20.789 kbps

    寒鸦4k(2024年)
    5.4
    ①网盘资源信息:
    剧情简介:讲述职业摩托手卷入犯罪事件,争分夺秒解救弟弟。
    6.9

    昨天 16:00/4K(3840x2160)

    爱的亡灵4k

    DISC INFO: Disc Title: L‘EMPIRE DE LA PASSION 4K UHD Disc Label: Ai.no.Bôrei.1978.2160p.FRA.UHD.Blu-ray.SDR.HEVC.DTS-HD.MA.1.0-4ksj Disc Size: 98,363,288,053 bytes Protection: AACS2 Extras: Ultra HD BDInfo: 0.7.5.6 PLAYLIST REPORT: Name: 00004.MPLS Length: 1:45:20.939 (h:m:s.ms) Size: 77,274,631,872 bytes Total Bitrate: 97.80 Mbps VIDEO: Codec Bitrate Description ----- ------- ----------- MPEG-H HEVC Video 90853 kbps 2160p / 23.976 fps / 16:9 / Main 10 @ Level 5.1 @ High / 10 bits / BT.709 AUDIO: Codec Language Bitrate Description ----- -------- ------- ----------- DTS-HD Master Audio Japanese 1056 kbps 1.0 / 48 kHz / 1056 kbps / 24-bit (DTS Core: 1.0 / 48 kHz / 768 kbps / 24-bit) DTS-HD Master Audio French 1062 kbps 1.0 / 48 kHz / 1062 kbps / 24-bit (DTS Core: 1.0 / 48 kHz / 768 kbps / 24-bit) Dolby Digital Audio French 256 kbps 2.0 / 48 kHz / 256 kbps / DN -27dB SUBTITLES: Codec Language Bitrate Description ----- -------- ------- ----------- Presentation Graphics French 17.926 kbps Presentation Graphics French 24.729 kbps

    爱的亡灵4k(70年代)
    6.9
    ①网盘资源信息:
    剧情简介:乡下车夫仪三郎(田村高广 饰)的妻子阿石(吉行和子 饰)勤劳善良,仪三郎不在家时,村里终日游手好闲的浪荡子丰次(藤龙也 饰)屡次向她献殷勤,她都不为所动,但是,她终没抵挡住丰次年青强健的身体的诱惑,两人更为了长相厮守,于某个暴风雪的夜晚勒死了仪三郎,并把他的尸体投入枯井。丰次出于罪恶感,每天 会把落叶倒入枯井。   三年之后,村里人议论仪三郎的鬼魂出现,阿石也开始受到仪三郎鬼魂的骚扰,逐渐无法承受心理上的重压,而为了打消村里人的怀疑,丰次再次杀人。当丰次和阿石冒险进入枯井想将仪三郎的遗骨转移时,却与他的鬼魂不期而遇。


2015-2023 www.4ksj.com  4K世界 |网站地图
京ICP证160991号 京公网安备11010802015683号 Copyright ©2023 All Rights Reserved.
    *本站提供的所有电影资源均来自互联网,仅限交流使用,请在下载后的2小时内删除,所有版权皆属原公司所有,如果认为本站侵犯了您的版权,请告知,我们会立即删除。