注册/登陆
游客您好
第三方账号登陆
不法岳父母4k.The.Out-Laws.2023.2160p.电影下载
[复制链接]
2023-07-09 发布
  • 4K大师玩家
  • 20
  • 3170
静待花开 发表于 2023-7-9 10:27:20 |阅读模式 打印 上一主题 下一主题

不法岳父母4k
2023年(豆瓣:0)
  • 电影声道:5.1声道 
  • 电影语言:英文字幕   
  • 画质标准 HDR 
  • 资源版本  
  • 帧数/FPS:24.000 Fps
    发布排行: 第部4K原盘
    导  演:泰勒·斯宾德尔
    制片国家:美国 
    电影分类:动作 犯罪 喜剧 爱情片 
    分 辨 率:4K(3840x2160)
简介 欧文(亚当·德维尼 Adam DeVine 饰)是一个直率的银行经理,即将与他的爱人帕克(妮娜·杜波夫 Nina Dobrev 饰)结婚。然而在他举行婚礼周时,他的银行被臭名昭著的“幽灵强盗团”抢劫。他刚到镇上的岳父(皮尔斯·布鲁斯南 Pierce Brosnan 饰)岳母(艾伦·巴金 Ellen Barkin 饰),便是臭名昭著的劫匪。
  • 网盘①


    提取码①
    无链接, 或无权限
    网盘②


    访问码②
    中文字幕


    BT种子 / 磁力链下载
  • 电影信息INFO
    Video
    ID : 1
    Format : HEVC
    Format/Info : High Efficiency Video Coding
    Format profile : Main 10@L5@Main
    HDR format : Dolby Vision, Version 1.0, dvhe.08.06, BL+RPU, HDR10 compatible / SMPTE ST 2086, HDR10 compatible
    Codec ID : V_MPEGH/ISO/HEVC
    Duration : 1 h 35 min
    Bit rate : 10.5 Mb/s
    Width : 3 840 pixels
    Height : 2 160 pixels
    Display aspect ratio : 16:9
    Frame rate mode : Constant
    Frame rate : 24.000 FPS
    Color space : YUV
    Chroma subsampling : 4:2:0 (Type 2)
    Bit depth : 10 bits
    Bits/(Pixel*Frame) : 0.053
    Stream size : 7.02 GiB (93%)
    Default : Yes
    Forced : No
    Color range : Limited
    Color primaries : BT.2020
    Transfer characteristics : PQ
    Matrix coefficients : BT.2020 non-constant
    Mastering display color primaries : Display P3
    Mastering display luminance : min: 0.0001 cd/m2, max: 1000 cd/m2
    Maximum Content Light Level : 756 cd/m2
    Maximum Frame-Average Light Level : 182 cd/m2

    Audio
    ID : 2
    Format : E-AC-3 JOC
    Format/Info : Enhanced AC-3 with Joint Object Coding
    Commercial name : Dolby Digital Plus with Dolby Atmos
    Codec ID : A_EAC3
    Duration : 1 h 35 min
    Bit rate mode : Constant
    Bit rate : 768 kb/s
    Channel(s) : 6 channels
    Channel layout : L R C LFE Ls Rs
    Sampling rate : 48.0 kHz
    Frame rate : 31.250 FPS (1536 SPF)
    Compression mode : Lossy
    Stream size : 525 MiB (7%)
    Language : English
    Service kind : Complete Main
    Default : Yes
    Forced : No
    Complexity index : 16
    Number of dynamic objects : 15
    Bed channel count : 1 channel
    Bed channel configuration : LFE

    Text #1
    ID : 3
    Format : UTF-8
    Codec ID : S_TEXT/UTF8
    Codec ID/Info : UTF-8 Plain Text
    Duration : 1 h 31 min
    Bit rate : 85 b/s
    Frame rate : 0.287 FPS
    Count of elements : 1574
    Stream size : 57.5 KiB (0%)
    Language : English
    Default : No
    Forced : No

    Text #2
    ID : 4
    Format : UTF-8
    Codec ID : S_TEXT/UTF8
    Codec ID/Info : UTF-8 Plain Text
    Duration : 1 h 31 min
    Bit rate : 100 b/s
    Frame rate : 0.327 FPS
    Count of elements : 1792
    Stream size : 67.6 KiB (0%)
    Title : SDH
    Language : English
    Default : No
    Forced : No

    Text #3
    ID : 5
    Format : UTF-8
    Codec ID : S_TEXT/UTF8
    Codec ID/Info : UTF-8 Plain Text
    Duration : 1 h 26 min
    Bit rate : 130 b/s
    Frame rate : 0.271 FPS
    Count of elements : 1408
    Stream size : 82.9 KiB (0%)
    Language : Arabic
    Default : No
    Forced : No

    Text #4
    ID : 6
    Format : UTF-8
    Codec ID : S_TEXT/UTF8
    Codec ID/Info : UTF-8 Plain Text
    Duration : 1 h 34 min
    Bit rate : 66 b/s
    Frame rate : 0.248 FPS
    Count of elements : 1397
    Stream size : 45.6 KiB (0%)
    Language : Catalan
    Default : No
    Forced : No

    Text #5
    ID : 7
    Format : UTF-8
    Codec ID : S_TEXT/UTF8
    Codec ID/Info : UTF-8 Plain Text
    Duration : 1 h 34 min
    Bit rate : 64 b/s
    Frame rate : 0.246 FPS
    Count of elements : 1389
    Stream size : 44.4 KiB (0%)
    Language : Czech
    Default : No
    Forced : No

    Text #6
    ID : 8
    Format : UTF-8
    Codec ID : S_TEXT/UTF8
    Codec ID/Info : UTF-8 Plain Text
    Duration : 1 h 34 min
    Bit rate : 67 b/s
    Frame rate : 0.234 FPS
    Count of elements : 1321
    Stream size : 46.7 KiB (0%)
    Language : Danish
    Default : No
    Forced : No

    Text #7
    ID : 9
    Format : UTF-8
    Codec ID : S_TEXT/UTF8
    Codec ID/Info : UTF-8 Plain Text
    Duration : 1 h 34 min
    Bit rate : 63 b/s
    Frame rate : 0.238 FPS
    Count of elements : 1341
    Stream size : 44.0 KiB (0%)
    Language : German
    Default : No
    Forced : No

    Text #8
    ID : 10
    Format : UTF-8
    Codec ID : S_TEXT/UTF8
    Codec ID/Info : UTF-8 Plain Text
    Duration : 1 h 31 min
    Bit rate : 99 b/s
    Frame rate : 0.324 FPS
    Count of elements : 1780
    Stream size : 66.8 KiB (0%)
    Title : SDH
    Language : German
    Default : No
    Forced : No

    Text #9
    ID : 11
    Format : UTF-8
    Codec ID : S_TEXT/UTF8
    Codec ID/Info : UTF-8 Plain Text
    Duration : 1 h 34 min
    Bit rate : 118 b/s
    Frame rate : 0.234 FPS
    Count of elements : 1324
    Stream size : 82.0 KiB (0%)
    Language : Greek
    Default : No
    Forced : No

    Text #10
    ID : 12
    Format : UTF-8
    Codec ID : S_TEXT/UTF8
    Codec ID/Info : UTF-8 Plain Text
    Duration : 1 h 34 min
    Bit rate : 65 b/s
    Frame rate : 0.250 FPS
    Count of elements : 1412
    Stream size : 45.2 KiB (0%)
    Title : Latin American
    Language : Spanish (Latin America)
    Default : No
    Forced : No

    Text #11
    ID : 13
    Format : UTF-8
    Codec ID : S_TEXT/UTF8
    Codec ID/Info : UTF-8 Plain Text
    Duration : 1 h 34 min
    Bit rate : 86 b/s
    Frame rate : 0.344 FPS
    Count of elements : 1945
    Stream size : 59.8 KiB (0%)
    Title : Latin American (SDH)
    Language : Spanish (Latin America)
    Default : No
    Forced : No

    Text #12
    ID : 14
    Format : UTF-8
    Codec ID : S_TEXT/UTF8
    Codec ID/Info : UTF-8 Plain Text
    Duration : 1 h 34 min
    Bit rate : 64 b/s
    Frame rate : 0.248 FPS
    Count of elements : 1402
    Stream size : 44.2 KiB (0%)
    Title : European
    Language : Spanish (ES)
    Default : No
    Forced : No

    Text #13
    ID : 15
    Format : UTF-8
    Codec ID : S_TEXT/UTF8
    Codec ID/Info : UTF-8 Plain Text
    Duration : 1 h 35 min
    Bit rate : 88 b/s
    Frame rate : 0.300 FPS
    Count of elements : 1713
    Stream size : 61.4 KiB (0%)
    Title : European (SDH)
    Language : Spanish (ES)
    Default : No
    Forced : No

    Text #14
    ID : 16
    Format : UTF-8
    Codec ID : S_TEXT/UTF8
    Codec ID/Info : UTF-8 Plain Text
    Duration : 1 h 34 min
    Bit rate : 66 b/s
    Frame rate : 0.249 FPS
    Count of elements : 1405
    Stream size : 46.0 KiB (0%)
    Language : Basque
    Default : No
    Forced : No

    Text #15
    ID : 17
    Format : UTF-8
    Codec ID : S_TEXT/UTF8
    Codec ID/Info : UTF-8 Plain Text
    Duration : 1 h 34 min
    Bit rate : 65 b/s
    Frame rate : 0.202 FPS
    Count of elements : 1144
    Stream size : 45.1 KiB (0%)
    Language : Finnish
    Default : No
    Forced : No

    Text #16
    ID : 18
    Format : UTF-8
    Codec ID : S_TEXT/UTF8
    Codec ID/Info : UTF-8 Plain Text
    Duration : 1 h 34 min
    Bit rate : 69 b/s
    Frame rate : 0.246 FPS
    Count of elements : 1389
    Stream size : 48.1 KiB (0%)
    Language : fil
    Default : No
    Forced : No

    Text #17
    ID : 19
    Format : UTF-8
    Codec ID : S_TEXT/UTF8
    Codec ID/Info : UTF-8 Plain Text
    Duration : 1 h 34 min
    Bit rate : 67 b/s
    Frame rate : 0.249 FPS
    Count of elements : 1407
    Stream size : 46.2 KiB (0%)
    Language : French
    Default : No
    Forced : No

    Text #18
    ID : 20
    Format : UTF-8
    Codec ID : S_TEXT/UTF8
    Codec ID/Info : UTF-8 Plain Text
    Duration : 1 h 31 min
    Bit rate : 93 b/s
    Frame rate : 0.363 FPS
    Count of elements : 1990
    Stream size : 62.9 KiB (0%)
    Title : SDH
    Language : French
    Default : No
    Forced : No

    Text #19
    ID : 21
    Format : UTF-8
    Codec ID : S_TEXT/UTF8
    Codec ID/Info : UTF-8 Plain Text
    Duration : 1 h 34 min
    Bit rate : 65 b/s
    Frame rate : 0.250 FPS
    Count of elements : 1411
    Stream size : 45.3 KiB (0%)
    Language : Galician
    Default : No
    Forced : No

    Text #20
    ID : 22
    Format : UTF-8
    Codec ID : S_TEXT/UTF8
    Codec ID/Info : UTF-8 Plain Text
    Duration : 1 h 34 min
    Bit rate : 113 b/s
    Frame rate : 0.251 FPS
    Count of elements : 1418
    Stream size : 78.5 KiB (0%)
    Language : Hebrew
    Default : No
    Forced : No

    Text #21
    ID : 23
    Format : UTF-8
    Codec ID : S_TEXT/UTF8
    Codec ID/Info : UTF-8 Plain Text
    Duration : 1 h 34 min
    Bit rate : 62 b/s
    Frame rate : 0.241 FPS
    Count of elements : 1360
    Stream size : 42.9 KiB (0%)
    Language : Croatian
    Default : No
    Forced : No

    Text #22
    ID : 24
    Format : UTF-8
    Codec ID : S_TEXT/UTF8
    Codec ID/Info : UTF-8 Plain Text
    Duration : 1 h 34 min
    Bit rate : 68 b/s
    Frame rate : 0.244 FPS
    Count of elements : 1376
    Stream size : 47.6 KiB (0%)
    Language : Hungarian
    Default : No
    Forced : No

    Text #23
    ID : 25
    Format : UTF-8
    Codec ID : S_TEXT/UTF8
    Codec ID/Info : UTF-8 Plain Text
    Duration : 1 h 31 min
    Bit rate : 89 b/s
    Frame rate : 0.290 FPS
    Count of elements : 1591
    Stream size : 59.9 KiB (0%)
    Title : SDH
    Language : Hungarian
    Default : No
    Forced : No

    Text #24
    ID : 26
    Format : UTF-8
    Codec ID : S_TEXT/UTF8
    Codec ID/Info : UTF-8 Plain Text
    Duration : 1 h 34 min
    Bit rate : 67 b/s
    Frame rate : 0.248 FPS
    Count of elements : 1402
    Stream size : 46.7 KiB (0%)
    Language : Indonesian
    Default : No
    Forced : No

    Text #25
    ID : 27
    Format : UTF-8
    Codec ID : S_TEXT/UTF8
    Codec ID/Info : UTF-8 Plain Text
    Duration : 1 h 34 min
    Bit rate : 63 b/s
    Frame rate : 0.249 FPS
    Count of elements : 1406
    Stream size : 44.0 KiB (0%)
    Language : Italian
    Default : No
    Forced : No

    Text #26
    ID : 28
    Format : UTF-8
    Codec ID : S_TEXT/UTF8
    Codec ID/Info : UTF-8 Plain Text
    Duration : 1 h 31 min
    Bit rate : 102 b/s
    Frame rate : 0.339 FPS
    Count of elements : 1860
    Stream size : 68.4 KiB (0%)
    Title : SDH
    Language : Italian
    Default : No
    Forced : No

    Text #27
    ID : 29
    Format : UTF-8
    Codec ID : S_TEXT/UTF8
    Codec ID/Info : UTF-8 Plain Text
    Duration : 1 h 34 min
    Bit rate : 72 b/s
    Frame rate : 0.282 FPS
    Count of elements : 1594
    Stream size : 49.9 KiB (0%)
    Language : Japanese
    Default : No
    Forced : No

    Text #28
    ID : 30
    Format : UTF-8
    Codec ID : S_TEXT/UTF8
    Codec ID/Info : UTF-8 Plain Text
    Duration : 1 h 34 min
    Bit rate : 80 b/s
    Frame rate : 0.250 FPS
    Count of elements : 1413
    Stream size : 55.7 KiB (0%)
    Language : Korean
    Default : No
    Forced : No

    Text #29
    ID : 31
    Format : UTF-8
    Codec ID : S_TEXT/UTF8
    Codec ID/Info : UTF-8 Plain Text
    Duration : 1 h 34 min
    Bit rate : 66 b/s
    Frame rate : 0.240 FPS
    Count of elements : 1356
    Stream size : 45.8 KiB (0%)
    Language : Malay
    Default : No
    Forced : No

    Text #30
    ID : 32
    Format : UTF-8
    Codec ID : S_TEXT/UTF8
    Codec ID/Info : UTF-8 Plain Text
    Duration : 1 h 34 min
    Bit rate : 65 b/s
    Frame rate : 0.235 FPS
    Count of elements : 1327
    Stream size : 44.9 KiB (0%)
    Language : Norwegian Bokmal
    Default : No
    Forced : No

    Text #31
    ID : 33
    Format : UTF-8
    Codec ID : S_TEXT/UTF8
    Codec ID/Info : UTF-8 Plain Text
    Duration : 1 h 34 min
    Bit rate : 60 b/s
    Frame rate : 0.236 FPS
    Count of elements : 1334
    Stream size : 41.7 KiB (0%)
    Language : Dutch
    Default : No
    Forced : No

    Text #32
    ID : 34
    Format : UTF-8
    Codec ID : S_TEXT/UTF8
    Codec ID/Info : UTF-8 Plain Text
    Duration : 1 h 34 min
    Bit rate : 63 b/s
    Frame rate : 0.240 FPS
    Count of elements : 1354
    Stream size : 43.7 KiB (0%)
    Language : Polish
    Default : No
    Forced : No

    Text #33
    ID : 35
    Format : UTF-8
    Codec ID : S_TEXT/UTF8
    Codec ID/Info : UTF-8 Plain Text
    Duration : 1 h 34 min
    Bit rate : 66 b/s
    Frame rate : 0.258 FPS
    Count of elements : 1457
    Stream size : 46.1 KiB (0%)
    Title : Brazilian
    Language : Portuguese (BR)
    Default : No
    Forced : No

    Text #34
    ID : 36
    Format : UTF-8
    Codec ID : S_TEXT/UTF8
    Codec ID/Info : UTF-8 Plain Text
    Duration : 1 h 27 min
    Bit rate : 90 b/s
    Frame rate : 0.323 FPS
    Count of elements : 1694
    Stream size : 58.1 KiB (0%)
    Title : Brazilian (SDH)
    Language : Portuguese (BR)
    Default : No
    Forced : No

    Text #35
    ID : 37
    Format : UTF-8
    Codec ID : S_TEXT/UTF8
    Codec ID/Info : UTF-8 Plain Text
    Duration : 1 h 34 min
    Bit rate : 66 b/s
    Frame rate : 0.250 FPS
    Count of elements : 1412
    Stream size : 45.5 KiB (0%)
    Title : European
    Language : Portuguese (PT)
    Default : No
    Forced : No

    Text #36
    ID : 38
    Format : UTF-8
    Codec ID : S_TEXT/UTF8
    Codec ID/Info : UTF-8 Plain Text
    Duration : 1 h 34 min
    Bit rate : 73 b/s
    Frame rate : 0.236 FPS
    Count of elements : 1335
    Stream size : 50.7 KiB (0%)
    Language : Romanian
    Default : No
    Forced : No

    Text #37
    ID : 39
    Format : UTF-8
    Codec ID : S_TEXT/UTF8
    Codec ID/Info : UTF-8 Plain Text
    Duration : 1 h 34 min
    Bit rate : 108 b/s
    Frame rate : 0.264 FPS
    Count of elements : 1489
    Stream size : 75.1 KiB (0%)
    Language : Russian
    Default : No
    Forced : No

    Text #38
    ID : 40
    Format : UTF-8
    Codec ID : S_TEXT/UTF8
    Codec ID/Info : UTF-8 Plain Text
    Duration : 1 h 34 min
    Bit rate : 64 b/s
    Frame rate : 0.221 FPS
    Count of elements : 1246
    Stream size : 44.6 KiB (0%)
    Language : Swedish
    Default : No
    Forced : No

    Text #39
    ID : 41
    Format : UTF-8
    Codec ID : S_TEXT/UTF8
    Codec ID/Info : UTF-8 Plain Text
    Duration : 1 h 34 min
    Bit rate : 184 b/s
    Frame rate : 0.250 FPS
    Count of elements : 1413
    Stream size : 127 KiB (0%)
    Language : Thai
    Default : No
    Forced : No

    Text #40
    ID : 42
    Format : UTF-8
    Codec ID : S_TEXT/UTF8
    Codec ID/Info : UTF-8 Plain Text
    Duration : 1 h 34 min
    Bit rate : 65 b/s
    Frame rate : 0.250 FPS
    Count of elements : 1415
    Stream size : 45.4 KiB (0%)
    Language : Turkish
    Default : No
    Forced : No

    Text #41
    ID : 43
    Format : UTF-8
    Codec ID : S_TEXT/UTF8
    Codec ID/Info : UTF-8 Plain Text
    Duration : 1 h 34 min
    Bit rate : 106 b/s
    Frame rate : 0.248 FPS
    Count of elements : 1399
    Stream size : 73.2 KiB (0%)
    Language : Ukrainian
    Default : No
    Forced : No

    Text #42
    ID : 44
    Format : UTF-8
    Codec ID : S_TEXT/UTF8
    Codec ID/Info : UTF-8 Plain Text
    Duration : 1 h 34 min
    Bit rate : 94 b/s
    Frame rate : 0.238 FPS
    Count of elements : 1344
    Stream size : 65.2 KiB (0%)
    Language : Vietnamese
    Default : No
    Forced : No

    Text #43
    ID : 45
    Format : UTF-8
    Codec ID : S_TEXT/UTF8
    Codec ID/Info : UTF-8 Plain Text
    Duration : 1 h 34 min
    Bit rate : 71 b/s
    Frame rate : 0.264 FPS
    Count of elements : 1491
    Stream size : 49.4 KiB (0%)
    Title : Simplified
    Language : Chinese (Simplified)
    Default : No
    Forced : No

    Text #44
    ID : 46
    Format : UTF-8
    Codec ID : S_TEXT/UTF8
    Codec ID/Info : UTF-8 Plain Text
    Duration : 1 h 34 min
    Bit rate : 66 b/s
    Frame rate : 0.254 FPS
    Count of elements : 1435
    Stream size : 46.1 KiB (0%)
    Title : Traditional
    Language : Chinese (Traditional)
    Default : No
    Forced : No

    Menu
    00:00:00.000 : en:Scene 01
    01:27:45.450 : en:Credits

不法岳父母4k.The.Out-Laws.2023.2160p.NF.WEB-DL.DDP5.1.Atmos.DV.HDR.H.265-4k电影下载

不法岳父母4k.The.Out-Laws.2023.2160p.NF.WEB-DL.DDP5.1.Atmos.DV.HDR.H.265【简繁中字】【7.54 GB】
磁力链下载:
magnet:?xt=urn:btih:ff1b7994cc891697b58b4c0625e56b21da57bdd6&dn

精彩评论3

7旭日东升7 发表于 2023-7-9 15:40:39
谢谢分享
回复 支持 反对

使用道具 举报

lzhuiclh 发表于 2023-7-9 16:16:48
影片基调诙谐幽默,笑点不高,但表演还算自然。剧情俗套、打斗很水、追车闯墓地可还行,除了那个搞笑的女银行经理外没有特别出彩的角色。 我想它介于三星和四星之间,用来打发时间还不错。
回复 支持 反对

使用道具 举报

youjizz 发表于 2023-8-6 15:24:11
谢谢分享
回复 支持 反对

使用道具 举报

您需要登录后才可以回帖 登录 | 立即注册

本版积分规则

推荐影视全站推荐影视下载
  • 7.8

    5 天前/4K(3840x2160)

    热辣滚烫4K

    General............: Yolo.2024.2160p.HQ.WEB-DL.H265.DTS5.1-4KSJ Duration...........: 02:09:31.735 (HH:MM:SS:FF) RELEASE.SIZE.......: 20.3 GiB VIDEO.CODEC........: HEVC Main 10@L5.1@Main FRAMERATE..........: 24.000 fps VIDEO.BITRATE......: 19.9 Mb/s RESOLUTION.........: 3840 x 1616 ASPECT.RATIO.......: 2.40:1 Audio..............: DTS 6 channels 768 kb/s Chinese Mandarin [DTS5.1] Audio..............: E-AC-3 6 channels 768 kb/s Chinese Mandarin [DDP5.1 Atmos] Audio..............: E-AC-3 6 channels 448 kb/s Chinese Mandarin [DDP5.1] Audio..............: E-AC-3 2 channels 256 kb/s Chinese Mandarin [DDP2.0] Audio..............: AAC 2 channels 256 kb/s Chinese Mandarin [AAC2.0]

    热辣滚烫4K(2024年)
    7.8
    ①网盘资源信息:
    剧情简介:大学毕业后仅仅工作短暂的一段时间,杜乐莹(贾玲 饰)便退回家中,宅家长达十年之久。她无所事事,拒绝和外界做过多接触,甚至和家人的关系也变得紧张起来。在和离婚回到娘家的妹妹乐丹(张小斐 饰)一次激烈的冲突后,乐莹选择离家出走,并且在烧烤店找了服务员的工作勉强维生。爱情、亲情、人生,似乎一时间均跌入了谷底,而阴差阳错间乐莹又结识了落魄的拳击教练昊坤(雷佳音 饰)。她支持着他的梦想,彼此又不得不去面对残酷的现实。人生至暗时刻,随波逐流的女孩是否决心逆流而上?   本片改编自日本电影《百元之恋》。
    5.1

    7 天前/4K(3840x2160)

    谍影追凶4k

    Disc Title: The Bricklayer Disc Label: The.Bricklayer.2023.MULTi.COMPLETE.UHD.BLURAY-4ksj.vip Disc Size: 77,346,409,831 bytes Protection: AACS2 Playlist: 00000.MPLS Size: 67,032,694,464 bytes Length: 1:49:58.592 Total Bitrate: 81.27 Mbps Video: MPEG-H HEVC Video / 73197 kbps / 2160p / 23.976 fps / 16:9 / Main 10 @ Level 5.1 @ High / 10 bits / HDR10 / BT.2020 * Video: MPEG-H HEVC Video / 102 kbps / 1080p / 23.976 fps / 16:9 / Main 10 @ Level 5.1 @ High / 10 bits / Dolby Vision / BT.2020 Audio: German / DTS-HD Master Audio / 5.1 / 48 kHz / 1989 kbps / 16-bit (DTS Core: 5.1 / 48 kHz / 1509 kbps / 16-bit) Audio: English / DTS-HD Master Audio / 5.1 / 48 kHz / 1986 kbps / 16-bit (DTS Core: 5.1 / 48 kHz / 1509 kbps / 16-bit) Subtitle: German / 28.384 kbps Subtitle: German / 30.512 kbps Subtitle: German / 0.119 kbps

    谍影追凶4k(2023年)
    5.1
    ①网盘资源信息:
    剧情简介:有人正在勒索中央情报局——通过暗杀外国记者,并栽赃CIA。 当世界开始联合起来反对美国时,中央情报局必须出动他们最聪明且叛逆的特工重返江湖,迫使他面对自己曲折的过去,同时揭开一个国际阴谋。

    4 天前/4K(3840x2160)

    绣春刀:无间炼狱4k

    eneral............: Brotherhood.of.Blades.2024.2160p.HQ.WEB-DL.H265.60fps.DDP2.0-4ksj Duration...........: 01:30:28.768 (HH:MM:SS:FF) RELEASE.SIZE.......: 16.0 GiB VIDEO.CODEC........: HEVC Main 10@L5.1@Main FRAMERATE..........: 60.000 fps VIDEO.BITRATE......: 24.9 Mb/s RESOLUTION.........: 3840 x 1632 ASPECT.RATIO.......: 2.35:1 Audio..............: E-AC-3 2 channels 256 kb/s Chinese Mandarin [DDP2.0] Audio..............: AAC 2 channels 256 kb/s Chinese Mandarin [AAC2.0]

    ①网盘资源信息:
    剧情简介:明朝天启年间,阉党权倾朝野,江湖盗匪猖獗,少年流寇季显(李晨浩饰)意外顶替锦衣卫的身份,却被卷入王朝颠覆的阴谋。生死危机的倒计时,出身与本心的对立,与其苟活乱世,不如拼死一战,换个活法。
    5.8

    6 天前/4K(3840x2160)

    三个火枪手:米莱迪4k

    DISC INFO: Disc Title: BLU-RAY UHD Disc Label: Les.trois.mousquetaires.Milady.2023.COMPLETE.UHD.BLURAY-4ksj Disc Size: 88,862,921,162 bytes Protection: AACS2 Extras: Ultra HD BDInfo: 0.7.5.6 PLAYLIST REPORT: Name: 00000.MPLS Length: 1:54:07.958 (h:m:s.ms) Size: 87,810,691,008 bytes Total Bitrate: 102.58 Mbps (*) Indicates included stream hidden by this playlist. VIDEO: Codec Bitrate Description ----- ------- ----------- MPEG-H HEVC Video 80997 kbps 2160p / 24 fps / 16:9 / Main 10 @ Level 5.1 @ High / 10 bits / HDR10 / BT.2020 * MPEG-H HEVC Video 9044 kbps 1080p / 24 fps / 16:9 / Main 10 @ Level 5.1 @ High / 10 bits / Dolby Vision / BT.2020 AUDIO: Codec Language Bitrate Description ----- -------- ------- ----------- Dolby TrueHD/Atmos Audio French 5167 kbps 7.1 / 48 kHz / 4527 kbps / 24-bit (AC3 Embedded: 5.1 / 48 kHz / 640 kbps / DN -27dB) DTS-HD Master Audio French 1732 kbps 2.0 / 48 kHz / 1732 kbps / 24-bit (DTS Core: 2.0 / 48 kHz / 768 kbps / 24-bit) SUBTITLES: Codec Language Bitrate Description ----- -------- ------- ----------- Presentation Graphics French 0.657 kbps Presentation Graphics French 23.315 kbps

    ①网盘资源信息:
    剧情简介: 从卢浮宫到白金汉宫,到巴黎的阴沟到拉罗谢尔的围城……在一个被宗教战争分裂并受到英国入侵威胁的王国里,少数男男女女将剑拔弩张,将他们的命运与法国的命运绑在一起 。
    7.3

    6 天前/4K(3840x2160)

    无间道风云4k

    Disc Title: The.Departed.2006.2160p.UHD.Blu-ray.HEVC.DTS-HD.MA5.1-4ksj Disc Size: 86,325,690,740 bytes Protection: AACS2 Extras: Ultra HD, BD-Java BDInfo: 0.7.6.1 (compatible layout created by DVDFab 13 13.0.1.5) PLAYLIST REPORT: Name: 00800.MPLS Length: 2:31:18.736 (h:m:s.ms) Size: 74,042,167,296 bytes Total Bitrate: 65.24 Mbps VIDEO: Codec Bitrate Description ----- ------- ----------- MPEG-H HEVC Video 58065 kbps 2160p / 23.976 fps / 16:9 / Main 10 @ Level 5.1 @ High / 4:2:0 / 10 bits / 1000nits / HDR10 / BT.2020 AUDIO: Codec Language Bitrate Description ----- -------- ------- ----------- DTS-HD Master Audio English 2780 kbps 5.1 / 48 kHz / 2780 kbps / 24-bit (DTS Core: 5.1 / 48 kHz / 1509 kbps / 24-bit) Dolby Digital Audio Spanish 640 kbps 5.1 / 48 kHz / 640 kbps Dolby Digital Audio Chinese 384 kbps 5.1 / 48 kHz / 384 kbps 国语配音 SUBTITLES: Codec Language Bitrate Description ----- -------- ------- ----------- Presentation Graphics English 39.337 kbps Presentation Graphics Spanish 34.661 kbps Presentation Graphics Spanish 0.085 kbps Presentation Graphics Chinese 32.042 kbps 官译简体中文 Presentation Graphics Chinese 33.083 kbps 官译繁体中文 Presentation Graphics Chinese 59.736 kbps 简英双语字幕 Presentation Graphics Chinese 60.472 kbps 繁英双语字幕

    无间道风云4k(00年代)
    7.3
    ①网盘资源信息:
    剧情简介:波士顿南部的马萨诸塞州黑社会势力极为猖獗,其中最大的团伙要数弗兰克(杰克•尼科尔森 Jack Nicholson 饰)执掌的爱尔兰黑帮。警方为了剿灭他们,决定派警校毕业生比利(莱昂纳多•迪卡普里奥 Leonardo DiCaprio 饰)潜伏其中做卧底。警官的冷嘲热讽,让曾有过底层生活的比利甚为不爽,他曾希望做堂堂正正的警察,但是在强压之下也只得服从命令,在经过烧杀抢掠的洗礼后,他赢得了弗兰克的信任。与此同时,同是毕业生的科林(马特•达蒙 Matt Damon饰)因为缉私有功,获得了上级的嘉奖,并且正在跟心仪女友筹备婚事。而实际上,他是弗兰克安插到警队的一枚棋子,两人勾结牟取私利。警匪先后发现存在内鬼,一场猫鼠博弈由此展开……   本片获得第79届奥斯卡金像奖最佳影片、马丁•斯科塞斯摘得最佳导演奖。


2015-2023 www.4ksj.com  4K世界 |网站地图
京ICP证160991号 京公网安备11010802015683号 Copyright ©2023 All Rights Reserved.
    *本站提供的所有电影资源均来自互联网,仅限交流使用,请在下载后的2小时内删除,所有版权皆属原公司所有,如果认为本站侵犯了您的版权,请告知,我们会立即删除。