注册/登陆
游客您好
第三方账号登陆
迪士尼乐园项目大起底 第一季4k 2021 HDR 2160p纪录片下载
[复制链接]
2023-07-28 发布
  • 4K大师玩家
  • 20
  • 3141
静待花开 发表于 2023-7-28 10:00:00 |阅读模式 打印 上一主题 下一主题

迪士尼乐园项目大起底 第一季4k
2021年(豆瓣:8.4)
  • 电影声道:5.1声道 
  • 电影语言:中文简体   中文繁体   英文字幕   
  • 画质标准 HDR 
  • 资源版本 WEB-DL 4K   
  • 帧数/FPS:23.976 Fps
    发布排行: 第部4K原盘
    导  演:暂无
    制片国家:美国 
    电影分类:纪录片 
    分 辨 率:4K(3840x2160)
简介We’re going #BehindTheAttraction… figuratively, and literally. Discover more about your favorite #DisneyParks attractions in the Original Series from executive producers Dwayne Johnson, Dany Garcia, and Brian Volk-Weiss. The first five episodes are streaming July 21 on #DisneyPlus.
  • 网盘①


    提取码①
    无链接, 或无权限
    网盘②


    访问码②
    中文字幕


    BT种子 / 磁力链下载
  • 电影信息INFO
    General
    Unique ID : 233536250796775853483188500084957778927 (0xAFB1722349968C4258CE431DFFD613EF)
    Complete name : Behind.the.Attraction.S01E01.HDR.2160p.WEB.h265-KOGi.mkv
    Format : Matroska
    Format version : Version 4
    File size : 4.66 GiB
    Duration : 40 min 10 s
    Overall bit rate : 16.6 Mb/s
    Writing application : mkvmerge v58.0.0 (\\\\\\\'Supper\\\\\\\'s Ready\\\\\\\') 64-bit
    Writing library : libebml v1.4.2 + libmatroska v1.6.4

    Video
    ID : 1
    Format : HEVC
    Format/Info : High Efficiency Video Coding
    Format profile : Main 10@L5@High
    HDR format : SMPTE ST 2086, HDR10 compatible
    Codec ID : V_MPEGH/ISO/HEVC
    Duration : 40 min 10 s
    Bit rate : 16.3 Mb/s
    Width : 3 840 pixels
    Height : 2 160 pixels
    Display aspect ratio : 16:9
    Frame rate mode : Constant
    Frame rate : 23.976 (24000/1001) FPS
    Color space : YUV
    Chroma subsampling : 4:2:0
    Bit depth : 10 bits
    Bits/(Pixel*Frame) : 0.082
    Stream size : 4.59 GiB (98%)
    Language : English
    Default : Yes
    Forced : No
    Color range : Limited
    Color primaries : BT.2020
    Transfer characteristics : PQ
    Matrix coefficients : BT.2020 non-constant
    Mastering display color primaries : Display P3
    Mastering display luminance : min: 0.0001 cd/m2, max: 1000 cd/m2

    Audio
    ID : 2
    Format : E-AC-3
    Format/Info : Enhanced AC-3
    Commercial name : Dolby Digital Plus
    Codec ID : A_EAC3
    Duration : 40 min 10 s
    Bit rate mode : Constant
    Bit rate : 256 kb/s
    Channel(s) : 6 channels
    Channel layout : L R C LFE Ls Rs
    Sampling rate : 48.0 kHz
    Frame rate : 31.250 FPS (1536 SPF)
    Compression mode : Lossy
    Stream size : 73.5 MiB (2%)
    Language : English
    Service kind : Complete Main
    Default : Yes
    Forced : No

    Text #1
    ID : 3
    Format : UTF-8
    Codec ID : S_TEXT/UTF8
    Codec ID/Info : UTF-8 Plain Text
    Duration : 39 min 33 s
    Bit rate : 141 b/s
    Count of elements : 817
    Stream size : 41.0 KiB (0%)
    Title : English (SDH)
    Language : English
    Default : No
    Forced : No

    Text #2
    ID : 4
    Format : UTF-8
    Codec ID : S_TEXT/UTF8
    Codec ID/Info : UTF-8 Plain Text
    Duration : 40 min 6 s
    Bit rate : 112 b/s
    Count of elements : 763
    Stream size : 33.0 KiB (0%)
    Title : Dansk
    Language : Danish
    Default : No
    Forced : No

    Text #3
    ID : 5
    Format : UTF-8
    Codec ID : S_TEXT/UTF8
    Codec ID/Info : UTF-8 Plain Text
    Duration : 40 min 6 s
    Bit rate : 120 b/s
    Count of elements : 766
    Stream size : 35.4 KiB (0%)
    Title : Deutsch
    Language : German
    Default : No
    Forced : No

    Text #4
    ID : 6
    Format : UTF-8
    Codec ID : S_TEXT/UTF8
    Codec ID/Info : UTF-8 Plain Text
    Duration : 40 min 5 s
    Bit rate : 114 b/s
    Count of elements : 767
    Stream size : 33.5 KiB (0%)
    Title : Español
    Language : Spanish
    Default : No
    Forced : No

    Text #5
    ID : 7
    Format : UTF-8
    Codec ID : S_TEXT/UTF8
    Codec ID/Info : UTF-8 Plain Text
    Duration : 39 min 31 s
    Bit rate : 126 b/s
    Count of elements : 777
    Stream size : 36.5 KiB (0%)
    Title : Español (Latinoamericano)
    Language : Spanish
    Default : No
    Forced : No

    Text #6
    ID : 8
    Format : UTF-8
    Codec ID : S_TEXT/UTF8
    Codec ID/Info : UTF-8 Plain Text
    Duration : 40 min 5 s
    Bit rate : 115 b/s
    Count of elements : 766
    Stream size : 33.8 KiB (0%)
    Title : Suomi
    Language : Finnish
    Default : No
    Forced : No

    Text #7
    ID : 9
    Format : UTF-8
    Codec ID : S_TEXT/UTF8
    Codec ID/Info : UTF-8 Plain Text
    Duration : 39 min 41 s
    Bit rate : 129 b/s
    Count of elements : 779
    Stream size : 37.7 KiB (0%)
    Title : Français
    Language : French
    Default : No
    Forced : No

    Text #8
    ID : 10
    Format : UTF-8
    Codec ID : S_TEXT/UTF8
    Codec ID/Info : UTF-8 Plain Text
    Duration : 40 min 6 s
    Bit rate : 119 b/s
    Count of elements : 764
    Stream size : 35.1 KiB (0%)
    Title : Italiano
    Language : Italian
    Default : No
    Forced : No

    Text #9
    ID : 11
    Format : UTF-8
    Codec ID : S_TEXT/UTF8
    Codec ID/Info : UTF-8 Plain Text
    Duration : 40 min 0 s
    Bit rate : 117 b/s
    Count of elements : 723
    Stream size : 34.5 KiB (0%)
    Title : Japanese
    Language : Japanese
    Default : No
    Forced : No

    Text #10
    ID : 12
    Format : UTF-8
    Codec ID : S_TEXT/UTF8
    Codec ID/Info : UTF-8 Plain Text
    Duration : 39 min 56 s
    Bit rate : 141 b/s
    Count of elements : 801
    Stream size : 41.5 KiB (0%)
    Title : Korean
    Language : Korean
    Default : No
    Forced : No

    Text #11
    ID : 13
    Format : UTF-8
    Codec ID : S_TEXT/UTF8
    Codec ID/Info : UTF-8 Plain Text
    Duration : 40 min 6 s
    Bit rate : 116 b/s
    Count of elements : 764
    Stream size : 34.2 KiB (0%)
    Title : Nederlands
    Language : Dutch
    Default : No
    Forced : No

    Text #12
    ID : 14
    Format : UTF-8
    Codec ID : S_TEXT/UTF8
    Codec ID/Info : UTF-8 Plain Text
    Duration : 40 min 6 s
    Bit rate : 110 b/s
    Count of elements : 760
    Stream size : 32.6 KiB (0%)
    Title : Norsk
    Language : Norwegian
    Default : No
    Forced : No

    Text #13
    ID : 15
    Format : UTF-8
    Codec ID : S_TEXT/UTF8
    Codec ID/Info : UTF-8 Plain Text
    Duration : 40 min 6 s
    Bit rate : 103 b/s
    Count of elements : 759
    Stream size : 30.5 KiB (0%)
    Title : Polski
    Language : Polish
    Default : No
    Forced : No

    Text #14
    ID : 16
    Format : UTF-8
    Codec ID : S_TEXT/UTF8
    Codec ID/Info : UTF-8 Plain Text
    Duration : 40 min 6 s
    Bit rate : 113 b/s
    Count of elements : 761
    Stream size : 33.4 KiB (0%)
    Title : Português (Brasil)
    Language : Portuguese
    Default : No
    Forced : No

    Text #15
    ID : 17
    Format : UTF-8
    Codec ID : S_TEXT/UTF8
    Codec ID/Info : UTF-8 Plain Text
    Duration : 40 min 6 s
    Bit rate : 120 b/s
    Count of elements : 762
    Stream size : 35.4 KiB (0%)
    Title : Português
    Language : Portuguese
    Default : No
    Forced : No

    Text #16
    ID : 18
    Format : UTF-8
    Codec ID : S_TEXT/UTF8
    Codec ID/Info : UTF-8 Plain Text
    Duration : 40 min 5 s
    Bit rate : 109 b/s
    Count of elements : 764
    Stream size : 32.1 KiB (0%)
    Title : Svenska
    Language : Swedish
    Default : No
    Forced : No

    Text #17
    ID : 19
    Format : UTF-8
    Codec ID : S_TEXT/UTF8
    Codec ID/Info : UTF-8 Plain Text
    Duration : 40 min 6 s
    Bit rate : 89 b/s
    Count of elements : 743
    Stream size : 26.2 KiB (0%)
    Title : Chinese (Hong Kong)
    Language : Chinese
    Default : No
    Forced : No

    Text #18
    ID : 20
    Format : UTF-8
    Codec ID : S_TEXT/UTF8
    Codec ID/Info : UTF-8 Plain Text
    Duration : 40 min 6 s
    Bit rate : 92 b/s
    Count of elements : 757
    Stream size : 27.3 KiB (0%)
    Title : Chinese (Simplified)
    Language : Chinese
    Default : No
    Forced : No

迪士尼乐园大解密(台) / 迪士尼乐园的背后故事(港)/迪士尼乐园项目大起底 第一季4k.Behind the Attraction S01 2021 HDR 2160p DSNP WEB-DL DDP 5.1 H.265-4k纪录片下载



首发资源,挂机下载

精彩评论13

r31325 发表于 2023-7-28 14:52:10
人人都爱迪斯尼啊
回复 支持 反对

使用道具 举报

hzlzd 发表于 2023-7-28 17:19:53
我们要#BehindTheAttraction...比喻和字面上。在原创系列中发现更多关于您最喜欢的#DisneyParks景点,来自执行制片人巨石强森、丹尼·加西亚和布莱恩·沃尔克-韦斯。前五集将于 21 月 <> 日在 #DisneyPlus 上播出。
回复 支持 反对

使用道具 举报

sajking 发表于 2023-7-29 11:13:07
这个有点意思啊
回复 支持 反对

使用道具 举报

dyypzhj 发表于 2023-7-29 19:09:25
强烈建议版主把银河护卫队3,4k未修改的原版发出来,谢谢!
回复 支持 反对

使用道具 举报

kaneiqino1 发表于 2023-7-30 07:56:44
谢谢分享
回复 支持 反对

使用道具 举报

youjizz 发表于 2023-7-30 23:14:46
66666666666
回复 支持 反对

使用道具 举报

hwj0754 发表于 2023-8-11 15:35:34

非常感谢
回复 支持 反对

使用道具 举报

zhq500 发表于 2023-8-18 14:44:34
人人都爱迪斯尼啊
回复 支持 反对

使用道具 举报

hhzfz2504 发表于 2023-8-20 16:45:42
挺有意思的,了解一下迪士尼的历史
回复 支持 反对

使用道具 举报

xiewenbofs 发表于 2023-8-23 10:01:06
谢谢分享
回复 支持 反对

使用道具 举报

您需要登录后才可以回帖 登录 | 立即注册

本版积分规则

推荐影视全站推荐影视下载
  • 7.0

    3 天前/4K(3840x2160)

    杀破狼·贪狼4k

    DISC INFO: Disc Title: Paradox.2017.2160p.UHD.Blu-ray.HEVC.TrueHD.5.1-4ksj Disc Size: 61,953,240,096 bytes Protection: AACS2 Extras: Ultra HD BDInfo: 0.7.5.9 (compatible layout created by DVDFab 12.0.5.1) PLAYLIST REPORT: Name: 00001.MPLS Length: 1:39:39.333 (h:m:s.ms) Size: 60,899,168,256 bytes Total Bitrate: 81.48 Mbps VIDEO: Codec Bitrate Description ----- ------- ----------- MPEG-H HEVC Video 68981 kbps 2160p / 24 fps / 16:9 / Main 10 @ Level 5.1 @ High / 4:2:0 / 10 bits / 10000nits / HDR10 / BT.2020 AUDIO: Codec Language Bitrate Description ----- -------- ------- ----------- Dolby TrueHD Audio Chinese 3372 kbps 5.1 / 96 kHz / 2732 kbps / 16-bit (AC3 Core: 5.1-EX / 48 kHz / 640 kbps) Dolby TrueHD Audio Chinese 3369 kbps 5.1 / 96 kHz / 2729 kbps / 16-bit (AC3 Core: 5.1-EX / 48 kHz / 640 kbps) SUBTITLES: Codec Language Bitrate Description ----- -------- ------- ----------- Presentation Graphics Chinese 14.63 kbps Presentation Graphics English 14.31 kbps Presentation Graphics Chinese 12.773 kbps Presentation Graphics Chinese 13 kbps

    杀破狼·贪狼4k(2017年)
    7.0
    ①网盘资源信息:
    剧情简介: 香港警察李忠志(古天乐 饰)得知女儿芝(陈汉娜 饰)于泰国旅游间莫名失踪,即亲赴泰国报警求助。负责案件的华人探员崔杰(吴樾 饰),应允让他一同调查,却想不到李忠志利用媒体呼吁市民提供线索。 一条意外拍下芝被捉走的片段上载至警方网站,却被神秘删除。崔杰即连同好友兼同袍Tak(托尼·贾 饰)同赴寻找片主,却遇神秘人马截足灭证,狭路相逢,展开追截并与之搏斗。李忠志与崔杰两人逐步调查,却发现案中有案,并开始意识凶手背后神秘势力非他们能对付……
    6.1

    4 天前/4K(3840x2160)

    砍人快乐4K

    Disc Title: Freaky Disc Label: 砍人快乐.Freaky.2020.Complete.UHD.Blu-ray.2160p.HEVC.DTS-HD MA 5.1-Hao4k Disc Size: 74,073,917,077 bytes Protection: AACS2 Extras: Ultra HD BDInfo: 0.7.5.8 ===== PLAYLIST REPORT: ===== Name: 00002.MPLS Length: 1:42:03.325 (h:m:s.ms) Size: 73,484,441,280 bytes Total Bitrate: 96.01 Mbps ===== VIDEO: ===== Codec Bitrate Description ----- ------- ----------- MPEG-H HEVC Video 84996 kbps 2160p / 23.976 fps / 16:9 / Main 10 @ Level 5.1 @ High / 10 bits / HDR10 / BT.2020 ===== AUDIO: ===== Codec Language Bitrate Description ----- -------- ------- ----------- DTS-HD Master Audio English 3846 kbps 5.1 / 48 kHz / 3846 kbps / 24-bit (DTS Core: 5.1 / 48 kHz / 1509 kbps / 24-bit) DTS-HD Master Audio English 2043 kbps 2.0 / 48 kHz / 2043 kbps / 24-bit (DTS Core: 2.0 / 48 kHz / 1509 kbps / 24-bit) Dolby Digital Audio English 192 kbps 2.0 / 48 kHz / 192 kbps / DN -24dB ===== SUBTITLES: ===== Codec Language Bitrate Description ----- -------- ------- ----------- Presentation Graphics English 39.702 kbps Presentation Graphics Chinese 72.660 kbps 简体特效 Presentation Graphics Chinese 62.009 kbps 繁体特效 Presentation Graphics Chinese 92.826 kbps 简英特效 Presentation Graphics Chinese 80.405 kbps 繁英特效 ===== FILES:===== Name Time In Length Size Total Bitrate ---- ------- ------ ---- ------------- 00001.M2TS 0:00:00.000 1:42:03.325 73,484,441,280 96,005

    砍人快乐4K(2020年)
    6.1
    ①网盘资源信息:
    剧情简介:在与一个精神错乱的连环杀手交换尸体后,一名高中女生发现,她只有不到24小时的时间才能得到永久性的改变。
    5.1

    昨天 21:26/4K(3840x2160)

    谍影追凶4k

    Disc Title: The Bricklayer Disc Label: The.Bricklayer.2023.MULTi.COMPLETE.UHD.BLURAY-4ksj.vip Disc Size: 77,346,409,831 bytes Protection: AACS2 Playlist: 00000.MPLS Size: 67,032,694,464 bytes Length: 1:49:58.592 Total Bitrate: 81.27 Mbps Video: MPEG-H HEVC Video / 73197 kbps / 2160p / 23.976 fps / 16:9 / Main 10 @ Level 5.1 @ High / 10 bits / HDR10 / BT.2020 * Video: MPEG-H HEVC Video / 102 kbps / 1080p / 23.976 fps / 16:9 / Main 10 @ Level 5.1 @ High / 10 bits / Dolby Vision / BT.2020 Audio: German / DTS-HD Master Audio / 5.1 / 48 kHz / 1989 kbps / 16-bit (DTS Core: 5.1 / 48 kHz / 1509 kbps / 16-bit) Audio: English / DTS-HD Master Audio / 5.1 / 48 kHz / 1986 kbps / 16-bit (DTS Core: 5.1 / 48 kHz / 1509 kbps / 16-bit) Subtitle: German / 28.384 kbps Subtitle: German / 30.512 kbps Subtitle: German / 0.119 kbps

    谍影追凶4k(2023年)
    5.1
    ①网盘资源信息:
    剧情简介:有人正在勒索中央情报局——通过暗杀外国记者,并栽赃CIA。 当世界开始联合起来反对美国时,中央情报局必须出动他们最聪明且叛逆的特工重返江湖,迫使他面对自己曲折的过去,同时揭开一个国际阴谋。
    7.9

    7 天前/4K(3840x2160)

    Motley.Crue:The.End

    Disc Title: Motley Crue - The End Live In Los Angeles Disc Label: Motley.Crue: The.End.2016.2160p.UHD.Blu-ray.HEVC.DTS-HD.MA.5.1-4ksj Disc Size: 91,600,432,502 bytes Protection: AACS2 Playlist: 00007.MPLS Size: 79,844,782,272 bytes Length: 1:47:58.472 Total Bitrate: 98.60 Mbps Video: MPEG-H HEVC Video / 86901 kbps / 2160p / 23.976 fps / 16:9 / Main 10 @ Level 5.1 @ High / 4:2:0 / 10 bits / Limited Range / BT.709 / BT.709 / BT.709 Audio: English / LPCM Audio / 2.0 / 48 kHz / 2304 kbps / 24-bit Audio: English / DTS-HD Master Audio / 5.1 / 48 kHz / 5020 kbps / 24-bit (DTS Core: 5.1 / 48 kHz / 768 kbps

    Motley.Crue:The.End(2016年)
    7.9
    ①网盘资源信息:
    剧情简介:On January 28, 2014, M&#246;tley Crüe held a press conference at Beacher\'s Madhouse Theater in Hollywood, where they announced a final tour. The band became the first to sign a binding legal document known as a "cessation of touring" contract, preventing them from touring under the name M&#246;tley Crüe past the year 2015.

    6 天前/4K(3840x2160)

    大“反”派4k

    General............: Super.Villain.2024.2160p.HQ.WEB-DL.H265.DTS5.1-4ksj Duration...........: 01:38:05.216 (HH:MM:SS:FF) RELEASE.SIZE.......: 14.6 GiB VIDEO.CODEC........: HEVC Main 10@L5.1@Main FRAMERATE..........: 24.000 fps VIDEO.BITRATE......: 19.8 Mb/s RESOLUTION.........: 3840 x 2080 ASPECT.RATIO.......: 1.85:1 Audio..............: DTS 6 channels 768 kb/s Chinese Mandarin [DTS5.1] Audio..............: E-AC-3 6 channels 448 kb/s Chinese Mandarin [DDP5.1] Audio..............: AAC 2 channels 256 kb/s Chinese Mandarin [AAC2.0]

    ①网盘资源信息:
    剧情简介:讲述小演员毕超(包贝尔 饰)因意外失忆误以为自己是个十恶不赦的大反派,还把与自己对戏的女演员冰冰(克拉拉 饰)也错认成了现实中的妻子(李嘉琦 饰),为了让妻子过上更好的生活,毕超下定决心完成反派“绑架大富豪”的使命,在这一过程中意外与老大(周大勇 饰)、老二(马旭东 饰)、老三(喳喳 饰)三名歹徒结下梁子,自此踏上了惨遭碾压的倒霉爆笑之旅。


2015-2023 www.4ksj.com  4K世界 |网站地图
京ICP证160991号 京公网安备11010802015683号 Copyright ©2023 All Rights Reserved.
    *本站提供的所有电影资源均来自互联网,仅限交流使用,请在下载后的2小时内删除,所有版权皆属原公司所有,如果认为本站侵犯了您的版权,请告知,我们会立即删除。