注册/登陆
游客您好
第三方账号登陆
爱很难4k.Love Hard 2021 2160p.电影下载
[复制链接]
2023-10-07 发布
  • 4K大师玩家
  • 20
  • 2837
静待花开 发表于 2023-10-7 16:00:00 |阅读模式 打印 上一主题 下一主题

爱很难4k
2021年(豆瓣:6.3)
  • 电影声道:5.1声道 
  • 电影语言:中文简体   中文繁体   英文字幕   
  • 画质标准 Dolby Vision 
  • 资源版本 WEB-DL 4K   
  • 帧数/FPS:24.000 Fps
    发布排行: 第部4K原盘
    导  演:赫尔南·吉门尼斯 Hernán Jiménez
    制片国家:美国 
    电影分类:喜剧 爱情片 
    分 辨 率:4K(3840x2160)
简介一名总是在恋爱中不走运的洛杉矶女孩,爱上了约会软件中认识的东海岸男子,并决定前去给他一个节日惊喜,结果却发现自己被骗了。这部爱情轻喜剧讲述了她为了坠入爱河所做的努力。
  • 网盘①


    提取码①
    无链接, 或无权限
    网盘②


    访问码②
    中文字幕


    BT种子 / 磁力链下载
  • 电影信息INFO
    General
    Unique ID : 83760231498498706756730684707223047993 (0x3F03A240A9AF903B8AE253173B670F39)
    Complete name : Love.Hard.2021.2160p.NF.WEB-DL.DDP5.1.Atmos.DV.H.265-FLUX.mkv
    Format : Matroska
    Format version : Version 4
    File size : 14.4 GiB
    Duration : 1 h 44 min
    Overall bit rate : 19.7 Mb/s
    Writing application : mkvmerge v78.0 (\'Running\') 64-bit
    Writing library : libebml v1.4.4 + libmatroska v1.7.1

    Video
    ID : 1
    Format : HEVC
    Format/Info : High Efficiency Video Coding
    Format profile : Main 10@L5@Main
    HDR format : Dolby Vision, Version 1.0, dvhe.05.06, BL+RPU
    Codec ID : V_MPEGH/ISO/HEVC
    Duration : 1 h 44 min
    Bit rate : 18.9 Mb/s
    Width : 3 840 pixels
    Height : 2 160 pixels
    Display aspect ratio : 16:9
    Frame rate mode : Constant
    Frame rate : 24.000 FPS
    Color space : YUV
    Chroma subsampling : 4:2:0
    Bit depth : 10 bits
    Bits/(Pixel*Frame) : 0.095
    Stream size : 13.9 GiB (96%)
    Default : Yes
    Forced : No
    Color range : Full

    Audio
    ID : 2
    Format : E-AC-3 JOC
    Format/Info : Enhanced AC-3 with Joint Object Coding
    Commercial name : Dolby Digital Plus with Dolby Atmos
    Codec ID : A_EAC3
    Duration : 1 h 44 min
    Bit rate mode : Constant
    Bit rate : 768 kb/s
    Channel(s) : 6 channels
    Channel layout : L R C LFE Ls Rs
    Sampling rate : 48.0 kHz
    Frame rate : 31.250 FPS (1536 SPF)
    Compression mode : Lossy
    Stream size : 576 MiB (4%)
    Language : English
    Service kind : Complete Main
    Default : Yes
    Forced : No
    Complexity index : 16
    Number of dynamic objects : 15
    Bed channel count : 1 channel
    Bed channel configuration : LFE

    Text #1
    ID : 3
    Format : UTF-8
    Codec ID : S_TEXT/UTF8
    Codec ID/Info : UTF-8 Plain Text
    Duration : 1 h 40 min
    Bit rate : 92 b/s
    Count of elements : 1820
    Stream size : 68.2 KiB (0%)
    Language : English
    Default : No
    Forced : No

    Text #2
    ID : 4
    Format : UTF-8
    Codec ID : S_TEXT/UTF8
    Codec ID/Info : UTF-8 Plain Text
    Duration : 1 h 44 min
    Bit rate : 99 b/s
    Count of elements : 1996
    Stream size : 76.5 KiB (0%)
    Title : SDH
    Language : English
    Default : No
    Forced : No

    Text #3
    ID : 5
    Format : UTF-8
    Codec ID : S_TEXT/UTF8
    Codec ID/Info : UTF-8 Plain Text
    Duration : 1 h 44 min
    Bit rate : 120 b/s
    Count of elements : 1561
    Stream size : 92.5 KiB (0%)
    Language : Arabic
    Default : No
    Forced : No

    Text #4
    ID : 6
    Format : UTF-8
    Codec ID : S_TEXT/UTF8
    Codec ID/Info : UTF-8 Plain Text
    Duration : 1 h 44 min
    Bit rate : 73 b/s
    Count of elements : 1571
    Stream size : 56.0 KiB (0%)
    Language : Czech
    Default : No
    Forced : No

    Text #5
    ID : 7
    Format : UTF-8
    Codec ID : S_TEXT/UTF8
    Codec ID/Info : UTF-8 Plain Text
    Duration : 1 h 44 min
    Bit rate : 65 b/s
    Count of elements : 1469
    Stream size : 49.8 KiB (0%)
    Language : Danish
    Default : No
    Forced : No

    Text #6
    ID : 8
    Format : UTF-8
    Codec ID : S_TEXT/UTF8
    Codec ID/Info : UTF-8 Plain Text
    Duration : 1 h 44 min
    Bit rate : 72 b/s
    Count of elements : 1568
    Stream size : 55.6 KiB (0%)
    Language : German
    Default : No
    Forced : No

    Text #7
    ID : 9
    Format : UTF-8
    Codec ID : S_TEXT/UTF8
    Codec ID/Info : UTF-8 Plain Text
    Duration : 1 h 44 min
    Bit rate : 118 b/s
    Count of elements : 1566
    Stream size : 90.7 KiB (0%)
    Language : Greek
    Default : No
    Forced : No

    Text #8
    ID : 10
    Format : UTF-8
    Codec ID : S_TEXT/UTF8
    Codec ID/Info : UTF-8 Plain Text
    Duration : 1 h 44 min
    Bit rate : 69 b/s
    Count of elements : 1670
    Stream size : 53.1 KiB (0%)
    Title : Latin American
    Language : Spanish
    Default : No
    Forced : No

    Text #9
    ID : 11
    Format : UTF-8
    Codec ID : S_TEXT/UTF8
    Codec ID/Info : UTF-8 Plain Text
    Duration : 1 h 44 min
    Bit rate : 68 b/s
    Count of elements : 1510
    Stream size : 52.7 KiB (0%)
    Language : Spanish
    Default : No
    Forced : No

    Text #10
    ID : 12
    Format : UTF-8
    Codec ID : S_TEXT/UTF8
    Codec ID/Info : UTF-8 Plain Text
    Duration : 1 h 44 min
    Bit rate : 69 b/s
    Count of elements : 1569
    Stream size : 53.5 KiB (0%)
    Language : fil
    Default : No
    Forced : No

    Text #11
    ID : 13
    Format : UTF-8
    Codec ID : S_TEXT/UTF8
    Codec ID/Info : UTF-8 Plain Text
    Duration : 1 h 44 min
    Bit rate : 70 b/s
    Count of elements : 1514
    Stream size : 54.3 KiB (0%)
    Language : Finnish
    Default : No
    Forced : No

    Text #12
    ID : 14
    Format : UTF-8
    Codec ID : S_TEXT/UTF8
    Codec ID/Info : UTF-8 Plain Text
    Duration : 1 h 44 min
    Bit rate : 70 b/s
    Count of elements : 1564
    Stream size : 54.1 KiB (0%)
    Language : French
    Default : No
    Forced : No

    Text #13
    ID : 15
    Format : UTF-8
    Codec ID : S_TEXT/UTF8
    Codec ID/Info : UTF-8 Plain Text
    Duration : 1 h 44 min
    Bit rate : 120 b/s
    Count of elements : 1560
    Stream size : 92.1 KiB (0%)
    Language : Hebrew
    Default : No
    Forced : No

    Text #14
    ID : 16
    Format : UTF-8
    Codec ID : S_TEXT/UTF8
    Codec ID/Info : UTF-8 Plain Text
    Duration : 1 h 44 min
    Bit rate : 69 b/s
    Count of elements : 1489
    Stream size : 52.9 KiB (0%)
    Language : Croatian
    Default : No
    Forced : No

    Text #15
    ID : 17
    Format : UTF-8
    Codec ID : S_TEXT/UTF8
    Codec ID/Info : UTF-8 Plain Text
    Duration : 1 h 44 min
    Bit rate : 73 b/s
    Count of elements : 1556
    Stream size : 56.3 KiB (0%)
    Language : Hungarian
    Default : No
    Forced : No

    Text #16
    ID : 18
    Format : UTF-8
    Codec ID : S_TEXT/UTF8
    Codec ID/Info : UTF-8 Plain Text
    Duration : 1 h 44 min
    Bit rate : 67 b/s
    Count of elements : 1540
    Stream size : 51.3 KiB (0%)
    Language : Indonesian
    Default : No
    Forced : No

    Text #17
    ID : 19
    Format : UTF-8
    Codec ID : S_TEXT/UTF8
    Codec ID/Info : UTF-8 Plain Text
    Duration : 1 h 44 min
    Bit rate : 68 b/s
    Count of elements : 1566
    Stream size : 52.5 KiB (0%)
    Language : Italian
    Default : No
    Forced : No

    Text #18
    ID : 20
    Format : UTF-8
    Codec ID : S_TEXT/UTF8
    Codec ID/Info : UTF-8 Plain Text
    Duration : 1 h 44 min
    Bit rate : 73 b/s
    Count of elements : 1667
    Stream size : 56.5 KiB (0%)
    Language : Japanese
    Default : No
    Forced : No

    Text #19
    ID : 21
    Format : UTF-8
    Codec ID : S_TEXT/UTF8
    Codec ID/Info : UTF-8 Plain Text
    Duration : 1 h 44 min
    Bit rate : 85 b/s
    Count of elements : 1615
    Stream size : 65.5 KiB (0%)
    Language : Korean
    Default : No
    Forced : No

    Text #20
    ID : 22
    Format : UTF-8
    Codec ID : S_TEXT/UTF8
    Codec ID/Info : UTF-8 Plain Text
    Duration : 1 h 44 min
    Bit rate : 66 b/s
    Count of elements : 1570
    Stream size : 50.6 KiB (0%)
    Language : Malay
    Default : No
    Forced : No

    Text #21
    ID : 23
    Format : UTF-8
    Codec ID : S_TEXT/UTF8
    Codec ID/Info : UTF-8 Plain Text
    Duration : 1 h 44 min
    Bit rate : 66 b/s
    Count of elements : 1520
    Stream size : 51.3 KiB (0%)
    Language : Norwegian Bokmal
    Default : No
    Forced : No

    Text #22
    ID : 24
    Format : UTF-8
    Codec ID : S_TEXT/UTF8
    Codec ID/Info : UTF-8 Plain Text
    Duration : 1 h 44 min
    Bit rate : 64 b/s
    Count of elements : 1355
    Stream size : 49.7 KiB (0%)
    Language : Dutch
    Default : No
    Forced : No

    Text #23
    ID : 25
    Format : UTF-8
    Codec ID : S_TEXT/UTF8
    Codec ID/Info : UTF-8 Plain Text
    Duration : 1 h 44 min
    Bit rate : 65 b/s
    Count of elements : 1596
    Stream size : 50.1 KiB (0%)
    Language : Polish
    Default : No
    Forced : No

    Text #24
    ID : 26
    Format : UTF-8
    Codec ID : S_TEXT/UTF8
    Codec ID/Info : UTF-8 Plain Text
    Duration : 1 h 44 min
    Bit rate : 65 b/s
    Count of elements : 1556
    Stream size : 50.2 KiB (0%)
    Title : Brazilian
    Language : Portuguese
    Default : No
    Forced : No

    Text #25
    ID : 27
    Format : UTF-8
    Codec ID : S_TEXT/UTF8
    Codec ID/Info : UTF-8 Plain Text
    Duration : 1 h 44 min
    Bit rate : 73 b/s
    Count of elements : 1533
    Stream size : 56.1 KiB (0%)
    Language : Portuguese
    Default : No
    Forced : No

    Text #26
    ID : 28
    Format : UTF-8
    Codec ID : S_TEXT/UTF8
    Codec ID/Info : UTF-8 Plain Text
    Duration : 1 h 44 min
    Bit rate : 74 b/s
    Count of elements : 1560
    Stream size : 56.8 KiB (0%)
    Language : Romanian
    Default : No
    Forced : No

    Text #27
    ID : 29
    Format : UTF-8
    Codec ID : S_TEXT/UTF8
    Codec ID/Info : UTF-8 Plain Text
    Duration : 1 h 44 min
    Bit rate : 112 b/s
    Count of elements : 1560
    Stream size : 86.4 KiB (0%)
    Language : Russian
    Default : No
    Forced : No

    Text #28
    ID : 30
    Format : UTF-8
    Codec ID : S_TEXT/UTF8
    Codec ID/Info : UTF-8 Plain Text
    Duration : 1 h 44 min
    Bit rate : 66 b/s
    Count of elements : 1523
    Stream size : 51.2 KiB (0%)
    Language : Swedish
    Default : No
    Forced : No

    Text #29
    ID : 31
    Format : UTF-8
    Codec ID : S_TEXT/UTF8
    Codec ID/Info : UTF-8 Plain Text
    Duration : 1 h 44 min
    Bit rate : 184 b/s
    Count of elements : 1571
    Stream size : 141 KiB (0%)
    Language : Thai
    Default : No
    Forced : No

    Text #30
    ID : 32
    Format : UTF-8
    Codec ID : S_TEXT/UTF8
    Codec ID/Info : UTF-8 Plain Text
    Duration : 1 h 44 min
    Bit rate : 69 b/s
    Count of elements : 1549
    Stream size : 52.8 KiB (0%)
    Language : Turkish
    Default : No
    Forced : No

    Text #31
    ID : 33
    Format : UTF-8
    Codec ID : S_TEXT/UTF8
    Codec ID/Info : UTF-8 Plain Text
    Duration : 1 h 44 min
    Bit rate : 108 b/s
    Count of elements : 1556
    Stream size : 82.8 KiB (0%)
    Language : Ukrainian
    Default : No
    Forced : No

    Text #32
    ID : 34
    Format : UTF-8
    Codec ID : S_TEXT/UTF8
    Codec ID/Info : UTF-8 Plain Text
    Duration : 1 h 44 min
    Bit rate : 96 b/s
    Count of elements : 1512
    Stream size : 73.8 KiB (0%)
    Language : Vietnamese
    Default : No
    Forced : No

    Text #33
    ID : 35
    Format : UTF-8
    Codec ID : S_TEXT/UTF8
    Codec ID/Info : UTF-8 Plain Text
    Duration : 1 h 44 min
    Bit rate : 73 b/s
    Count of elements : 1576
    Stream size : 56.1 KiB (0%)
    Title : Simplified
    Language : Chinese
    Default : No
    Forced : No

    Text #34
    ID : 36
    Format : UTF-8
    Codec ID : S_TEXT/UTF8
    Codec ID/Info : UTF-8 Plain Text
    Duration : 1 h 44 min
    Bit rate : 74 b/s
    Count of elements : 1588
    Stream size : 56.8 KiB (0%)
    Title : Traditional
    Language : Chinese
    Default : No
    Forced : No

    Menu
    00:00:00.000 : en:Main
    01:38:53.000 : en:Credits

真爱难题(台) / 爱情很难(港)/爱很难4k.Love Hard 2021 2160p NF WEB-DL DDP5.1 Atmos DV H.265-4k电影下载


首发资源,挂机下载
您需要登录后才可以回帖 登录 | 立即注册

本版积分规则

推荐影视全站推荐影视下载
  • 7.6

    5 天前/4K(3840x2160)

    旺卡4k

    DISC INFO: Disc Title: Wonka Disc Label: Wonka 2023 UHD Blu-ray 2160p HEVC Atmos TrueHD 7.1-4ksj Disc Size: 79,227,084,016 bytes Protection: AACS2 Extras: Ultra HD, BD-Java BDInfo: 0.7.5.7 PLAYLIST REPORT: Name: 00800.MPLS Length: 1:56:16.427 (h:m:s.ms) Size: 71,513,819,136 bytes Total Bitrate: 82.01 Mbps (*) Indicates included stream hidden by this playlist. VIDEO: Codec Bitrate Description ----- ------- ----------- MPEG-H HEVC Video 71447 kbps 2160p / 23.976 fps / 16:9 / Main 10 @ Level 5.1 @ High / 10 bits / HDR10 / BT.2020 * MPEG-H HEVC Video 69 kbps 1080p / 23.976 fps / 16:9 / Main 10 @ Level 5.1 @ High / 10 bits / Dolby Vision / BT.2020 AUDIO: Codec Language Bitrate Description ----- -------- ------- ----------- Dolby TrueHD/Atmos Audio English 3644 kbps 7.1 / 48 kHz / 3196 kbps / 24-bit (AC3 Embedded: 5.1 / 48 kHz / 448 kbps / DN -27dB) Dolby Digital Audio English 640 kbps 5.1 / 48 kHz / 640 kbps / DN -27dB Dolby Digital Audio French 640 kbps 5.1 / 48 kHz / 640 kbps / DN -27dB Dolby Digital Audio Spanish 640 kbps 5.1 / 48 kHz / 640 kbps / DN -27dB SUBTITLES: Codec Language Bitrate Description ----- -------- ------- ----------- Presentation Graphics English 55.187 kbps Presentation Graphics French 38.536 kbps Presentation Graphics Spanish 43.597 kbps Presentation Graphics Chinese 33.862 kbps 简体中文 Presentation Graphics Chinese 34.317 kbps 繁体中文 Presentation Graphics Chinese 63.789 kbps 简英双语 Presentation Graphics Chinese 64.245 kbps 繁英双语 Presentation Graphics French 0.645 kbps Presentation Graphics Spanish 0.806 kbps FILES: Name Time In Length Size Total Bitrate ---- ------- ------ ---- ------------- 00063.M2TS 0:00:00.000 1:56:16.427 71,513,819,136 82,005

    旺卡4k(2023年)
    7.6
    ①网盘资源信息:
    剧情简介: 影片聚焦经典之作《查理和巧克力工厂》的主人公威利·旺卡(提莫西·查拉梅 饰),这位年轻且天赋异禀的发明家、魔术师、巧克力制作师,是如何经历奇幻冒险,成长为观众挚爱的巧克力工厂掌门人的故事。
    7.6

    5 天前/4K(3840x2160)

    飞鸭向前冲4k

    DISC INFO: Disc Title: Migration.2023.UHD.BluRay.2160p.HEVC.Atmos.TrueHD7.1-4KSJ Disc Size: 84,774,773,743 bytes Protection: AACS2 Extras: Ultra HD, BD-Java BDInfo: 0.7.5.9 (compatible layout created by DVDFab 12.0.5.1) PLAYLIST REPORT: Name: 00040.MPLS Length: 1:22:53.968 (h:m:s.ms) Size: 59,453,638,656 bytes Total Bitrate: 95.62 Mbps (*) Indicates included stream hidden by this playlist. VIDEO: Codec Bitrate Description ----- ------- ----------- MPEG-H HEVC Video 77410 kbps 2160p / 23.976 fps / 16:9 / Main 10 @ Level 5.1 @ High / 4:2:0 / 10 bits / 4000nits / HDR10 / BT.2020 * MPEG-H HEVC Video 7758 kbps (9.11%) 1080p / 23.976 fps / 16:9 / Main 10 @ Level 5.1 @ High / 4:2:0 / 10 bits / 4000nits / Dolby Vision FEL / BT.2020 AUDIO: Codec Language Bitrate Description ----- -------- ------- ----------- Dolby TrueHD/Atmos Audio English 3748 kbps 7.1+11 objects / 48 kHz / 3300 kbps / 16-bit (AC3 Core: 5.1 / 48 kHz / 448 kbps) Dolby Digital Plus Audio Spanish 768 kbps 7.1 / 48 kHz / 768 kbps (AC3 Core: 5.1 / 48 kHz / 448 kbps ( Core: 5.1 / 48 kHz / 448 kbps)) Dolby Digital Audio French 640 kbps 5.1 / 48 kHz / 640 kbps SUBTITLES: Codec Language Bitrate Description ----- -------- ------- ----------- Presentation Graphics English 51.976 kbps Presentation Graphics Spanish 35.422 kbps Presentation Graphics French 35.272 kbps Presentation Graphics French 0.046 kbps

    飞鸭向前冲4k(2023年)
    7.6
    ①网盘资源信息:
    剧情简介:飞鸭马拉德一家向南迁徙前往热带的牙买加,却意外闯入疯狂大都市纽约?在紧张刺激的飞行之旅中,他们将如何化险为夷?
    7.1

    昨天 04:10/4K(3840x2160)

    传染病4K

    Disc Title: Contagion Disc Label: Contagion.2011.2160p.UHD.Blu-ray.HEVC.DTS-HD.MA 5.1-4ksj Disc Size: 59,293,884,479 bytes Protection: AACS2 Playlist: 00800.MPLS Size: 55,033,394,496 bytes Length: 1:46:24.711 Total Bitrate: 68.96 Mbps Video: MPEG-H HEVC Video / 58225 kbps / 2160p / 23.976 fps / 16:9 / Main 10 @ Level 5.1 @ High / 10 bits / HDR10 / BT.2020 Audio: English / DTS-HD Master Audio / 5.1 / 48 kHz / 2167 kbps / 16-bit (DTS Core: 5.1 / 48 kHz / 1509 kbps / 16-bit) Audio: French / Dolby Digital Audio / 5.1 / 48 kHz / 640 kbps / DN -27dB Audio: French / Dolby Digital Audio / 5.1 / 48 kHz / 640 kbps / DN -27dB Audio: German / Dolby Digital Audio / 5.1 / 48 kHz / 640 kbps / DN -27dB Audio: Italian / Dolby Digital Audio / 5.1 / 48 kHz / 640 kbps / DN -27dB Audio: Spanish / Dolby Digital Audio / 5.1 / 48 kHz / 640 kbps / DN -27dB Audio: Spanish / Dolby Digital Audio / 5.1 / 48 kHz / 640 kbps / DN -27dB Audio: Czech / Dolby Digital Audio / 5.1 / 48 kHz / 640 kbps / DN -27dB Subtitle: English / 42.035 kbps Subtitle: French / 31.877 kbps Subtitle: German / 48.734 kbps Subtitle: Italian / 40.717 kbps Subtitle: Spanish / 36.837 kbps Subtitle: Dutch / 31.293 kbps Subtitle: Chinese / 32.748 kbps Subtitle: Chinese / 33.087 kbps Subtitle: Korean / 23.136 kbps Subtitle: Spanish / 35.346 kbps Subtitle: Czech / 30.910 kbps Subtitle: Danish / 32.222 kbps Subtitle: Finnish / 27.835 kbps Subtitle: Norwegian / 27.857 kbps Subtitle: Swedish / 31.847 kbps Subtitle: French / 1.309 kbps Subtitle: French / 1.309 kbps Subtitle: German / 1.213 kbps Subtitle: Italian / 1.787 kbps Subtitle: Spanish / 1.499 kbps Subtitle: Spanish / 0.752 kbps Subtitle: Czech / 0.885 kbps

    传染病4K(2010年)
    7.1
    ①网盘资源信息:
    剧情简介:影片讲述了一种新型致命病毒在几天之内席卷全球的故事。贝丝(格温妮丝·帕特洛 Gwyneth Paltrow 饰)从香港出差回明尼阿波利斯的家后突发疾病死亡,丈夫托马斯 (马特·达蒙 Matt Damon 饰)协助Dr. Erin Mears (凯特·温斯莱特 Kate Winslet 饰)调查真相。可怕的是同样病症的患者在世界范围内大规模出现,病毒在不停蔓延。阴谋论记者阿伦(裘德·洛 Jude Law 饰)趁机散布对政府和医疗机构不利的舆论。Dr. Leonora Orantes (玛丽昂·歌迪亚 Marion Cotillard 饰)被派往香港调查病因,但却被本土医生(黄经汉 Chin Han 饰)扣留作为交换疫苗的人质。在Dr. Ellis Cheever (劳伦斯·菲什伯恩 Laurence Fishburne 饰)和年轻医生Ally Hextall(詹妮弗·艾莉 Jennifer Ehle 饰)的努力下,终于研制出治疗病毒的疫苗,事件终于得以平静。 值得一提的是本片还有港星何超仪和徐天佑的卖力出演。
    7.1

    5 天前/4K(3840x2160)

    夜行骇传4k

    DISC INFO: Disc Title: Nightbreed Disc Label: Nightbreed.1990.UHD.BluRay.2160p.HEVC.DTS-HD.MA5.1-4ksj Disc Size: 71,939,292,655 bytes Protection: AACS2 Extras: Ultra HD BDInfo: 0.7.5.8 PLAYLIST REPORT: Name: 00002.MPLS Length: 1:41:37.841 (h:m:s.ms) Size: 71,086,750,464 bytes Total Bitrate: 93.26 Mbps (*) Indicates included stream hidden by this playlist. VIDEO: Codec Bitrate Description ----- ------- ----------- MPEG-H HEVC Video 76496 kbps 2160p / 23.976 fps / 16:9 / Main 10 @ Level 5.1 @ High / 10 bits / HDR10 / BT.2020 * MPEG-H HEVC Video 8542 kbps 1080p / 23.976 fps / 16:9 / Main 10 @ Level 5.1 @ High / 10 bits / Dolby Vision / BT.2020 AUDIO: Codec Language Bitrate Description ----- -------- ------- ----------- DTS-HD Master Audio English 1573 kbps 2.0 / 48 kHz / 1573 kbps / 24-bit (DTS Core: 2.0 / 48 kHz / 1509 kbps / 24-bit) DTS-HD Master Audio English 1855 kbps 5.1 / 48 kHz / 1855 kbps / 24-bit (DTS Core: 5.1 / 48 kHz / 1509 kbps / 24-bit) Dolby Digital Audio English 192 kbps 2.0 / 48 kHz / 192 kbps / DN -27dB SUBTITLES: Codec Language Bitrate Description ----- -------- ------- ----------- Presentation Graphics Chinese 15.556 kbps Presentation Graphics Chinese 15.885 kbps Presentation Graphics Chinese 26.417 kbps Presentation Graphics Chinese 26.746 kbps Presentation Graphics English 25.850 kbps

    夜行骇传4k(90年代)
    7.1
    ①网盘资源信息:
    剧情简介: 一个变态杀人心理医生,为摆脱其杀人罪名,便一再催眠他的病患 \'波恩\',让波恩误以为自己就是那一连串灭门血案的杀人狂,并且还通知警察逮捕他。波恩,是夜行族的一员,本以为在他找到夜行族的栖息国度之后,便可快乐的过属于自己的生活,没想到却一再受到变态杀人医生的阻挠,甚至还以将杀害波恩挚爱的女友来胁迫波恩就范…。在这些 〃自然人类〃(变态杀人医生 &.欲毁灭夜行族的地方警察)与 〃夜行族群〃的打斗过程同时,波恩也发现了自己与生俱来的重要使命….。本片内容极具神秘色彩,将带您进入不一样的想像国度。
    5.1

    5 天前/4K(3840x2160)

    最后的风之子4k

    最后的风之子4k(2010年)
    5.1
    ①网盘资源信息:
    剧情简介:本片由知名动画剧集《Avatar:The Last Airbender》改编而成。   水、火、土、气,乃支配世界的四大元素。操纵这四大元素的四个种族,分别是气和寺,水善部落,火烈国,土强王国。火烈国挑起了战争,气和寺被毁灭,水善部落面临灭绝,逃到了与世隔绝的冰天雪地;只有土强国仍在反抗。   降世神通,是世上唯可以保护世界的平衡与和谐之人,却突然失踪。弹指百年,水深火热中的人们早已忘记了救世主的传说。而在南极雪原上,冰层突然爆裂,冰封的球形中出现了个12岁的神秘男孩安(诺亚·林格 noah ringer 饰),而这个孩子竟然就是失踪已久的降世神通!在水部落卡塔拉(妮可拉·佩尔茨 Nicola Peltz 饰)和哥哥索卡(杰克逊·拉斯波恩 Jackson Rathbone 饰)的帮助下,安被唤醒体内神力,最终与同伴一起踏上拯救人类的道路。可这个孩子是否能阻止邪恶的火烈国征服世界呢?
2015-2023 www.4ksj.com  4K世界 |网站地图
京ICP证160991号 京公网安备11010802015683号 Copyright ©2023 All Rights Reserved.
    *本站提供的所有电影资源均来自互联网,仅限交流使用,请在下载后的2小时内删除,所有版权皆属原公司所有,如果认为本站侵犯了您的版权,请告知,我们会立即删除。