注册/登陆
游客您好
第三方账号登陆
[美剧] 鹰眼4K.Hawkeye.S01.2160p.HDR&杜比视界-美剧下载
[复制链接]
2021-11-24 发布
  • 新手未入门
  • 20
  • 17
bobzhan 发表于 2021-11-24 20:41:03 |阅读模式 打印 上一主题 下一主题
鹰眼4K.Hawkeye.2021.S01.2160p.DSNP.WEB-DL.x265.10bit.HDR.DDP5.1.Atmos美剧信息下载
  1. Video
  2. ID : 1
  3. Format : HEVC
  4. Format/Info : High Efficiency Video Coding
  5. Format profile : Main 10@L5@Main
  6. Codec ID : V_MPEGH/ISO/HEVC
  7. Duration : 49 min 17 s
  8. Bit rate : 21.7 Mb/s
  9. Width : 3 840 pixels
  10. Height : 2 160 pixels
  11. Display aspect ratio : 16:9
  12. Frame rate mode : Constant
  13. Frame rate : 24.000 FPS
  14. Color space : YUV
  15. Chroma subsampling : 4:2:0
  16. Bit depth : 10 bits
  17. Bits/(Pixel*Frame) : 0.109
  18. Stream size : 7.49 GiB (97%)
  19. Writing library : x265 3.5:[Linux][GCC 9.3.0][64 bit] 10bit
  20. Encoding settings : cpuid=1111039 / frame-threads=1 / wpp / no-pmode / no-pme / no-psnr / no-ssim / log-level=2 / input-csp=1 / input-res=3840x2160 / interlace=0 / total-frames=0 / level-idc=50 / high-tier=0 / uhd-bd=0 / ref=3 / no-allow-non-conformance / repeat-headers / annexb / no-aud / no-hrd / info / hash=0 / no-temporal-layers / no-open-gop / min-keyint=48 / keyint=48 / gop-lookahead=0 / bframes=2 / b-adapt=0 / b-pyramid / bframe-bias=0 / rc-lookahead=48 / lookahead-slices=8 / scenecut=0 / hist-scenecut=0 / radl=0 / no-splice / no-intra-refresh / ctu=32 / min-cu-size=8 / no-rect / no-amp / max-tu-size=16 / tu-inter-depth=2 / tu-intra-depth=2 / limit-tu=0 / rdoq-level=1 / dynamic-rd=0.00 / no-ssim-rd / signhide / no-tskip / nr-intra=0 / nr-inter=0 / no-constrained-intra / no-strong-intra-smoothing / max-merge=3 / limit-refs=1 / no-limit-modes / me=1 / subme=2 / merange=44 / temporal-mvp / no-frame-dup / no-hme / weightp / no-weightb / no-analyze-src-pics / deblock=0:0 / no-sao / no-sao-non-deblock / rd=4 / selective-sao=0 / early-skip / rskip / no-fast-intra / no-tskip-fast / no-cu-lossless / b-intra / no-splitrd-skip / rdpenalty=1 / psy-rd=1.60 / psy-rdoq=5.00 / no-rd-refine / no-lossless / cbqpoffs=0 / crqpoffs=0 / rc=abr / bitrate=23000 / qcomp=0.75 / qpstep=4 / stats-write=0 / stats-read=0 / vbv-maxrate=25000 / vbv-bufsize=25000 / vbv-init=0.9 / ipratio=1.40 / pbratio=1.30 / aq-mode=3 / aq-strength=1.00 / no-cutree / zone-count=0 / no-strict-cbr / qg-size=32 / no-rc-grain / qpmax=69 / qpmin=0 / no-const-vbv / sar=1 / overscan=0 / videoformat=5 / range=0 / colorprim=9 / transfer=16 / colormatrix=9 / chromaloc=0 / display-window=0 / cll=0,0 / min-luma=0 / max-luma=1023 / log2-max-poc-lsb=8 / vui-timing-info / vui-hrd-info / slices=1 / no-opt-qp-pps / no-opt-ref-list-length-pps / no-multi-pass-opt-rps / scenecut-bias=0.00 / hist-threshold=0.01 / no-opt-cu-delta-qp / no-aq-motion / no-hdr10 / hdr10-opt / no-dhdr10-opt / no-idr-recovery-sei / analysis-reuse-level=0 / analysis-save-reuse-level=0 / analysis-load-reuse-level=0 / scale-factor=0 / refine-intra=0 / refine-inter=0 / refine-mv=1 / refine-ctu-distortion=0 / no-limit-sao / ctu-info=0 / no-lowpass-dct / refine-analysis-type=0 / copy-pic=1 / max-ausize-factor=1.0 / no-dynamic-refine / no-single-sei / no-hevc-aq / no-svt / no-field / qp-adaptation-range=1.00 / no-scenecut-aware-qpconformance-window-offsets / right=0 / bottom=0
  21. Default : Yes
  22. Forced : No
  23. Color range : Limited
  24. Color primaries : BT.2020
  25. Transfer characteristics : PQ
  26. Matrix coefficients : BT.2020 non-constant

  27. Audio
  28. ID : 2
  29. Format : E-AC-3 JOC
  30. Format/Info : Enhanced AC-3 with Joint Object Coding
  31. Commercial name : Dolby Digital Plus with Dolby Atmos
  32. Codec ID : A_EAC3
  33. Duration : 49 min 17 s
  34. Bit rate mode : Constant
  35. Bit rate : 768 kb/s
  36. Channel(s) : 6 channels
  37. Channel layout : L R C LFE Ls Rs
  38. Sampling rate : 48.0 kHz
  39. Frame rate : 31.250 FPS (1536 SPF)
  40. Compression mode : Lossy
  41. Stream size : 271 MiB (3%)
  42. Language : English
  43. Service kind : Complete Main
  44. Default : Yes
  45. Forced : No
  46. Complexity index : 16
  47. Number of dynamic objects : 15
  48. Bed channel count : 1 channel
  49. Bed channel configuration : LFE

  50. Text #1
  51. ID : 3
  52. Format : UTF-8
  53. Codec ID : S_TEXT/UTF8
  54. Codec ID/Info : UTF-8 Plain Text
  55. Duration : 44 min 54 s
  56. Bit rate : 74 b/s
  57. Count of elements : 754
  58. Stream size : 24.4 KiB (0%)
  59. Language : English
  60. Default : No
  61. Forced : No

  62. Text #2
  63. ID : 4
  64. Format : UTF-8
  65. Codec ID : S_TEXT/UTF8
  66. Codec ID/Info : UTF-8 Plain Text
  67. Duration : 45 min 8 s
  68. Bit rate : 81 b/s
  69. Count of elements : 838
  70. Stream size : 27.0 KiB (0%)
  71. Title : SDH
  72. Language : English
  73. Default : No
  74. Forced : No

  75. Text #3
  76. ID : 5
  77. Format : UTF-8
  78. Codec ID : S_TEXT/UTF8
  79. Codec ID/Info : UTF-8 Plain Text
  80. Duration : 49 min 10 s
  81. Bit rate : 49 b/s
  82. Count of elements : 761
  83. Stream size : 17.9 KiB (0%)
  84. Title : Hong Kong
  85. Language : Chinese
  86. Default : No
  87. Forced : No

  88. Text #4
  89. ID : 6
  90. Format : UTF-8
  91. Codec ID : S_TEXT/UTF8
  92. Codec ID/Info : UTF-8 Plain Text
  93. Duration : 49 min 10 s
  94. Bit rate : 59 b/s
  95. Count of elements : 761
  96. Stream size : 21.4 KiB (0%)
  97. Title : Simplified
  98. Language : Chinese
  99. Default : No
  100. Forced : No

  101. Text #5
  102. ID : 7
  103. Format : UTF-8
  104. Codec ID : S_TEXT/UTF8
  105. Codec ID/Info : UTF-8 Plain Text
  106. Duration : 49 min 10 s
  107. Bit rate : 48 b/s
  108. Count of elements : 761
  109. Stream size : 17.5 KiB (0%)
  110. Title : Traditional
  111. Language : Chinese
  112. Default : No
  113. Forced : No

  114. Text #6
  115. ID : 8
  116. Format : UTF-8
  117. Codec ID : S_TEXT/UTF8
  118. Codec ID/Info : UTF-8 Plain Text
  119. Duration : 49 min 10 s
  120. Bit rate : 54 b/s
  121. Count of elements : 480
  122. Stream size : 19.5 KiB (0%)
  123. Language : Danish
  124. Default : No
  125. Forced : No

  126. Text #7
  127. ID : 9
  128. Format : UTF-8
  129. Codec ID : S_TEXT/UTF8
  130. Codec ID/Info : UTF-8 Plain Text
  131. Duration : 49 min 10 s
  132. Bit rate : 61 b/s
  133. Count of elements : 730
  134. Stream size : 22.0 KiB (0%)
  135. Language : German
  136. Default : No
  137. Forced : No
复制代码

鹰眼4K.Hawkeye.2021.S01.2160p.DSNP.WEB-DL.x265.10bit.HDR.DDP5.1.Atmos美剧信息下载

鹰眼4K.Hawkeye.S01E01.2160p.WEB.h265【6.68 GB】


鹰眼4K.Hawkeye.2021.S01E01.2160p.DSNP.WEB-DL.x265.10bit.HDR.DDP5.1.Atmos-TEPES【7.42 GB】


鹰眼4K.Hawkeye.2021.S01E02.2160p.DSNP.WEB-DL.x265.10bit.HDR.DDP5.1.Atmos-TEPES【7.75 GB】


鹰眼4K.Hawkeye.2021.S01.2160p.WEB-DL.DDP5.1.Atmos.DV.MKV.x265杜比视界下载


鹰眼4K.Hawkeye.2021.S01E01.2160p.WEB-DL.DDP5.1.Atmos.DV.MKV.x265-TEPES杜比视界版本【7.42 GB】


鹰眼4K.Hawkeye.2021.S01E02.2160p.WEB-DL.DDP5.1.Atmos.DV.MKV.x265-TEPES杜比视界版本【7.80 GB】


鹰眼4K.Hawkeye.S01E02.2160p.WEB.h265【6.98 GB】


鹰眼4K.Hawkeye.2021.S01E03.2160p.DSNP.WEB-DL.x265.8bit.SDR.DDP5.1.Atmos【5.88 GB】


鹰眼4K.Hawkeye.2021.S01E03.2160p.DSNP.WEB-DL.x265.10bit.HDR.DDP5.1.Atmos【6.48 GB】


鹰眼4K.Hawkeye.2021.S01E03.2160p.WEB-DL.DDP5.1.Atmos.DV.MKV.x265杜比视界版本【6.54 GB】


鹰眼4K.Hawkeye.2021.S01E03.2160p.WEB-DL.DDP5.1.Atmos.DV.MP4.x265杜比视界版本【6.54 GB】


鹰眼4K.Hawkeye.S01E03.2160p.WEB.h265【5.88 GB】


鹰眼4K.Hawkeye.2021.S01E04.Partners.Am.I.Right.2160p.DSNP.WEB-DL.x265.8bit.SDR.DDP5.1.Atmos【6.37 GB】


鹰眼4K.Hawkeye.2021.S01E04.Partners.Am.I.Right.2160p.DSNP.WEB-DL.x265.10bit.HDR.DDP5.1.Atmos【5.97 GB】


鹰眼4K.Hawkeye.2021.S01E04.Partners.Am.I.Right.2160p.WEB-DL.DDP5.1.Atmos.DV.MKV.x265杜比视界版本【5.98 GB】


鹰眼4K.Hawkeye.2021.S01E04.Partners.Am.I.Right.2160p.WEB-DL.DDP5.1.Atmos.DV.MP4.x265杜比视界版本【5.98 GB】


鹰眼4K.Hawkeye.S01E04.2160p.WEB.h265【5.37 GB】


鹰眼4K.Hawkeye.2021.S01E05.Ronin.2160p.DSNP.WEB-DL.x265.8bit.SDR.DDP5.1.Atmos【6.05 GB】


鹰眼4K.Hawkeye.2021.S01E05.Ronin.2160p.DSNP.WEB-DL.x265.10bit.HDR.DDP5.1.Atmos【6.66 GB】


鹰眼4K.Hawkeye.2021.S01E05.Ronin.2160p.WEB-DL.DDP5.1.Atmos.DV.MKV.x265杜比视界版本【6.67 GB】


鹰眼4K.Hawkeye.2021.S01E05.Ronin.2160p.WEB-DL.DDP5.1.Atmos.DV.MP4.x265杜比视界版本【6.67 GB】


鹰眼4K.Hawkeye.2021.S01E06.2160p.WEB-DL.x265.10bit.HDR.DDP5.1.Atmos【9.24 GB】


鹰眼4K.Hawkeye.2021.S01E06.2160p.WEB-DL.x265.8bit.SDR.DDP5.1.Atmos【8.33 GB】


鹰眼4K.Hawkeye.2021.S01E06.2160p.WEB-DL.DDP5.1.Atmos.DV.MP4.x265杜比视界版本【9.29 GB】


鹰眼4K.Hawkeye.2021.S01E06.2160p.WEB-DL.DDP5.1.Atmos.DV.MKV.x265杜比视界版本【9.29 GB】


鹰眼4K 2008.TrueHD 5.1 次世代京译国语音轨下载
https://www.4ksj.com/thread-70850-1-1.html
hawkeye1.jpg
参与人数 1K币 +1 收起 理由
generallq + 1 精辟极了!

查看全部评分总评分 : K币 +1

精彩评论61

lypcc20 发表于 2021-11-24 22:08:34
谢谢分享
回复 支持 2 反对 0

使用道具 举报

依依小茉茉 发表于 2021-11-25 08:06:34
回复 支持 反对

使用道具 举报

otherboy 发表于 2021-11-25 09:45:21
等个杜比视界版本yyds
回复 支持 反对

使用道具 举报

gxcxmj 发表于 2021-11-25 16:32:30
谢谢分享!
回复 支持 反对

使用道具 举报

亿万粉丝 发表于 2021-11-26 08:27:39
多谢分享高清资源,带走了。。。
回复 支持 反对

使用道具 举报

jilinxiaoqiang 发表于 2021-12-1 13:57:38
等更新完了攒着一起看 哈哈:lol
回复 支持 1 反对 0

使用道具 举报

nicking84 发表于 2021-12-2 12:01:40
杜比视界电视上放卡顿
回复 支持 反对

使用道具 举报

wangwei_680114 发表于 2021-12-6 15:45:44

谢谢分享
回复 支持 反对

使用道具 举报

亿万粉丝 发表于 2021-12-8 17:22:49
哈哈,有新的一集更新了,谢谢。
回复 支持 反对

使用道具 举报

simon5063 发表于 2021-12-11 09:43:12
这应该是漫威英里最没有存在感的英雄了吧?
回复 支持 0 反对 2

使用道具 举报

wower.cy 发表于 2021-12-12 10:40:52
排版有点乱啊
回复 支持 反对

使用道具 举报

heibaidizhu 发表于 2021-12-21 10:51:48
一共6集吗?出完一起下合集,嘿嘿
回复 支持 1 反对 0

使用道具 举报

lianxi68 发表于 2021-12-22 11:07:51
终于出来了。
回复 支持 2 反对 0

使用道具 举报

401156029 发表于 2021-12-22 16:49:01
今天全网好像只有1080p
回复 支持 反对

使用道具 举报

您需要登录后才可以回帖 登录 | 立即注册

本版积分规则

推荐影视全站推荐影视下载
  • 6.7

    6 天前/4K(3840x2160)

    美国骗局4k

    Disc Title: American.Hustle.2013.2160p.USA.UHD.Blu-ray.DV.HDR.HEVC.TrueHD.7.1.Atmos-4ksj Disc Label: AMERICAN_HUSTLE Disc Size: 90,587,158,705 bytes Protection: AACS2 Playlist: 00001.MPLS Size: 85,214,373,888 bytes Length: 02:18:03.274 Total Bitrate: 82.30 Mbps Video: MPEG-H HEVC Video / 66,371 kbps / 2160p / 23.976 fps / 16:9 / Main 10 @ Level 5.1 @ High / 4:2:0 / 10 bits / HDR10 / Limited Range / BT.2020 / PQ / BT.2020 non-constant / Mastering display color primaries: Display P3 / Mastering display luminance: min: 0.0001 cd/m2, max: 1000.0000 cd/m2 / Maximum Content Light Level: 997 cd / m2 / Maximum Frame-Average Light Level: 284 cd/m2 * Video: MPEG-H HEVC Video / 2,101 kbps / 1080p / 23.976 fps / 16:9 / Main 10 @ Level 5.1 @ High / 4:2:0 / 10 bits / Dolby Vision / Limited Range / BT.2020 / PQ / BT.2020 non-constant / Mastering display color primaries: Display P3 / Mastering display luminance: min: 0.0001 cd/m2, max: 1000.0000 cd/m2 Audio: English / Dolby TrueHD/Atmos Audio / 7.1 / 48 kHz / 3630 kbps / 24-bit (AC3 Embedded: 5.1 / 48 kHz / 640 kbps / DN -31dB) Audio: English / DTS-HD Master Audio / 5.1 / 48 kHz / 2160 kbps / 16-bit (DTS Core: 5.1 / 48 kHz / 1509 kbps / 16-bit) Audio: Spanish / DTS-HD Master Audio / 5.1 / 48 kHz / 2177 kbps / 16-bit (DTS Core: 5.1 / 48 kHz / 1509 kbps / 16-bit) Subtitle: English / 56.67 kbps Subtitle: English / 51.51 kbps Subtitle: Spanish / 41.85 kbps

    美国骗局4k(2013年)
    6.7
    ①网盘资源信息:
    剧情简介: 一次偶然中,埃文(克里斯蒂安·贝尔 Christian Bale 饰)遇见了性感美艳的脱衣舞女西德尼(艾米·亚当斯 Amy Adams 饰),趣味相投的两人一见钟情,很快就打得火热。没想到,埃文是一个职业骗子,在他的鼓动和“爱情的力量”影响之下,西德尼毅然入伙,两人联手合作,将“事业”经营的有声有色。   然而,常在河边走哪有不湿鞋,警方早已经盯上了行事作风颇为高调的埃文和西德尼,终于,在一次精密筹划的行动中将两人捉拿归案。经不住FBI探员里奇(布莱德利·库珀 Bradley Cooper 饰)的游说和诱惑,埃文和西德尼决定与其合作,“戴罪立功”。尽管拾起了“老本行”,但这次一次,埃文和西德尼显然站在了正义的那一方,因为他们的对手是那些贪赃枉法的腐败官员。

    3 天前/4K(3840x2160)

    美国内战4k

    File Name............: Civil.War.2024.2160p.iTunes.WEB-DL.DDP.5.1.Atmos.H.265-4ksj File Size............: 15.90 GiB Duration.............: 01:48:45.268 (HH:MM:SS.FFF) Video Bit Rate.......: 20,147 kbps Video Codec..........: HEVC,Main 10@L5 Frame Rate...........: 23.976 fps Resolution...........: 3836 x 2072 Audio#01.............: English (US) 768 kbps CBR 6channels E-AC-3 (ATMOS) Subtitle#01..........: Spanish (Latin America) Latin America

    美国内战4k(2024年)
    ①网盘资源信息:
    剧情简介: 影片讲述美国在不久的将来,爆发了影响全国的内战。在资深战地摄影师李·史密斯(克斯汀·邓斯特 Kirsten Dunst 饰)的带领下,记者们组成了一支强大的专业团队,穿越战线并设法生存下来。他们驱车前往华盛顿特区,希望在总统向名为 "WF"的军事力量投降之前采访总统。
    7.1

    6 天前/4K(3840x2160)

    特技狂人4k

    File Name............: The.Fall.Guy.2024.2160p.iTunes.WEB-DL.DDP.5.1.Atmos.HDR10+.H.265-4ksj File Size............: 22.30 GiB Duration.............: 02:06:53.451 (HH:MM:SS.FFF) Video Bit Rate.......: 24,420 kbps Video Codec..........: HEVC,Main 10@L5 SMPTE ST 2094 App 4, Version 1, HDR10+ Profile B compatible Frame Rate...........: 23.903 fps Resolution...........: 3836 x 1600 Audio#01.............: English (US) 768 kbps CBR 6channels E-AC-3 (ATMOS) Subtitle#01..........: Spanish (Latin America) Latin America Subtitle#02..........: French (CA) Canada

    特技狂人4k(2024年)
    7.1
    ①网盘资源信息:
    剧情简介:特技演员为爱犯险,翻身做主角。   科尔特·西弗斯(瑞恩·高斯林 Ryan Gosling 饰)是一名特技演员,就跟这个行业的每一个特技演员一样,他常常被炸飞、辗压、破窗而出以及从高处坠落地面,全都是为了娱乐观众。如今,他才刚因为意外受伤几乎被迫无法再从事特技表演,平凡的科尔特必须找到失踪的电影明星汤姆·赖德(亚伦·泰勒-约翰逊 Aaron Taylor-Johnson 饰)、破解一个阴谋,并且赢回他一生挚爱乔迪(艾米莉·布朗特 Emily Blunt 饰)的芳心,同时还要继续当一名特技演员。分身乏术、焦头烂额的他有可能一帆风顺吗?
    5.5

    7 天前/4K(3840x2160)

    我不好惹2:贝琪之怒4k

    Disc Title: BECKY 2 - SHE\\\\\\\\\\\\\\\\\\\\\\\\\\\\\\\\\\\\\\\\\\\\\\\\\\\\\\\\\\\\\\\'S BACK Disc Label: The.Wrath.of.Becky.2023.2160p.UHD.Blu-ray.HEVC.DTS-HD.MA.7.1-4ksj Disc Size: 54,543,534,782 bytes Protection: AACS2 Playlist: 00000.MPLS Size: 52,846,829,184 bytes Length: 1:24:10.000 Total Bitrate: 83.72 Mbps Video: MPEG-H HEVC Video / 70339 kbps / 2160p / 24 fps / 16:9 / Main 10 @ Level 5.1 @ High / 10 bits / HDR10 / BT.2020 Audio: German / DTS-HD Master Audio / 7.1 / 48 kHz / 4743 kbps / 24-bit (DTS Core: 5.1 / 48 kHz / 1509 kbps / 24-bit) Audio: English / DTS-HD Master Audio / 7.1 / 48 kHz / 4585 kbps / 24-bit (DTS Core: 5.1 / 48 kHz / 1509 kbps / 24-bit) Subtitle: German / 31.173 kbps Subtitle: German / 0.717 kbps

    ①网盘资源信息:
    剧情简介:在逃离暴力袭击两年后,女孩贝琪必须再度保护自己免受恐怖分子的袭击。贝琪试图在名叫埃琳娜的年长女性的照顾下重建自己的生活。但是,当一个被称为“贵族”的团体闯入他们的家,袭击他们,并带走她心爱的狗迭戈时,贝琪必须找回她以前的方式来保护自己和她的亲人。

    3 天前/4K(3840x2160)

    异星战境4k

    Video ID : 1 Format : HEVC Format/Info : High Efficiency Video Coding Format profile : Main 10@L5@Main Codec ID : V_MPEGH/ISO/HEVC Duration : 2 h 0 min Bit rate : 10.8 Mb/s Width : 3 840 pixels Height : 2 160 pixels Display aspect ratio : 16:9 Frame rate mode : Constant Frame rate : 24.000 FPS Color space : YUV Chroma subsampling : 4:2:0 Bit depth : 10 bits Bits/(Pixel*Frame) : 0.054 Stream size : 9.02 GiB (86%) Title : BEN.THE.MEN Language : English Default : Yes Forced : Yes Color range : Limited Color primaries : BT.709 Transfer characteristics : BT.709 Matrix coefficients : BT.709 Audio #1 ID : 2 Format : E-AC-3 JOC Format/Info : Enhanced AC-3 with Joint Object Coding Commercial name : Dolby Digital Plus with Dolby Atmos Codec ID : A_EAC3 Duration : 2 h 0 min Bit rate mode : Constant Bit rate : 768 kb/s Channel(s) : 6 channels Channel layout : L R C LFE Ls Rs Sampling rate : 48.0 kHz Frame rate : 31.250 FPS (1536 SPF) Compression mode : Lossy Stream size : 660 MiB (6%) Title : BTM DDP5.1 Atmos Language : English Service kind : Complete Main Default : Yes Forced : Yes Complexity index : 16 Number of dynamic objects : 15 Bed channel count : 1 channel Bed channel configuration : LFE Dialog Normalization : -26 dB compr : -0.28 dB dialnorm_Average : -26 dB dialnorm_Minimum : -26 dB dialnorm_Maximum : -26 dB Audio #2 ID : 3 Format : E-AC-3 Format/Info : Enhanced AC-3 Commercial name : Dolby Digital Plus Codec ID : A_EAC3 Duration : 2 h 0 min Bit rate mode : Constant Bit rate : 960 kb/s Channel(s) : 6 channels Channel layout : L R C LFE Ls Rs Sampling rate : 48.0 kHz Frame rate : 31.250 FPS (1536 SPF) Compression mode : Lossy Stream size : 825 MiB (8%) Title : BTM DDP5.1 Language : English Service kind : Complete Main Default : No Forced : No Dialog Normalization : -31 dB dialnorm_Average : -31 dB dialnorm_Minimum : -31 dB dialnorm_Maximum : -31 dB

    异星战境4k(2024年)
    ①网盘资源信息:
    剧情简介:在未来世界,军事情报分析师Atlas Shepherd(詹妮弗·洛佩兹 Jennifer Lopez 饰),对AI有着深切的不信任感。她加入了一个任务,试图捕捉一个叛逃的机器人,而这个机器人有着神秘的过去。不过,当计划失败时,她唯一拯救人类未来免受AI侵害的希望就是去相信它。


2015-2023 www.4ksj.com  4K世界 |网站地图
京ICP证160991号 京公网安备11010802015683号 Copyright ©2023 All Rights Reserved.
    *本站提供的所有电影资源均来自互联网,仅限交流使用,请在下载后的2小时内删除,所有版权皆属原公司所有,如果认为本站侵犯了您的版权,请告知,我们会立即删除。