4K世界

电视剧封面:
电视剧名: 光环 第一季
年  代: 2022  
国  家: 美国
类  别: 动作 科幻 战争 
语  言: 英语
字  幕: 中文简体
上映日期: 2022-03-24(美国)
文件格式: mkv    
视频效果: 4K(3840x2160)    
资源大小: 6.05 GB
片  长: 60 分钟
导  演: 乔纳森·里贝斯曼 / 奥图·巴瑟赫斯特 / 罗伊·雷内 / 杰特·威尔金森
剧情简介:   游戏改编剧《光环 Halo》确定由Showtime预定10集首季,Otto Bathurst负责执导部份集,此剧于定于2021年播出。
  本项目由13年开始启动,但期间动作不多,在14年XBox En ertainment Studios闭门后转交给Showtime开发,历时4年终于成功发展成正剧。《光晕》系列讲述了26世纪时,人类与外星种族之间的史诗级宇宙战争。
  在《美国众神 American Gods》有演出的Pablo Schreiber饰演核心人物士官长/ Master Chief,他是人类阻止外星大军「星盟」毁灭文化的唯一希望。新晋演员Yerin Ha饰演16岁的Quan Ah,精明﹑胆大的她在殖民星的关键时刻遇上士官长。
  Natascha McElhone会饰演两个角色,第一个是Catherine Halsey博士,她创造了超级士兵 - 斯巴达战士,同时她会饰演人造智能Cortana,它可能是人类能否生存下去的关键。Bokeem Woodbine饰演Soren-066,他是个道德观复杂的私掠船船长,即将与在军中时的军士长兼前好友 - 士官长有所冲突。Shabana Azmi饰演Margaret Parangosky上将,美国海军情报局的领导。
  Bentley Kalu饰演斯巴达战士Vannak-134,有强化神经机器的他是个童年时期就被征召的超级士兵,士官长的副手﹑Natasha Culzac饰演斯巴达战士Riz-028,她是个专注﹑专业的士兵,犹如杀戮机器一般﹑Kate Kennedy饰演有胆识﹑好奇心重的斯巴达战士新人Kai-125。
  1. Video
  2. ID                             : 1
  3. Format                         : HEVC
  4. Format/Info                    : High Efficiency Video Coding
  5. Format profile                 : Main 10@L5@High
  6. HDR format                     : Dolby Vision, Version 1.0, dvhe.05.06, BL+RPU
  7. Codec ID                       : dvhe
  8. Codec ID/Info                  : High Efficiency Video Coding with Dolby Vision
  9. Duration                       : 58 min 56 s
  10. Bit rate                       : 13.9 Mb/s
  11. Width                          : 3 840 pixels
  12. Height                         : 2 160 pixels
  13. Display aspect ratio           : 16:9
  14. Frame rate mode                : Constant
  15. Frame rate                     : 23.976 (24000/1001) FPS
  16. Color space                    : YUV
  17. Chroma subsampling             : 4:2:0 (Type 0)
  18. Bit depth                      : 10 bits
  19. Bits/(Pixel*Frame)             : 0.070
  20. Stream size                    : 5.73 GiB (95%)
  21. Default                        : Yes
  22. Alternate group                : 1
  23. Encoded date                   : UTC 2022-03-24 09:07:30
  24. Tagged date                    : UTC 2022-03-24 09:08:14
  25. Color range                    : Full
  26. Codec configuration box        : hvcC+dvcC

  27. Audio
  28. ID                             : 2
  29. Format                         : E-AC-3 JOC
  30. Format/Info                    : Enhanced AC-3 with Joint Object Coding
  31. Commercial name                : Dolby Digital Plus with Dolby Atmos
  32. Codec ID                       : ec-3
  33. Duration                       : 58 min 56 s
  34. Bit rate mode                  : Constant
  35. Bit rate                       : 768 kb/s
  36. Maximum bit rate               : 811 kb/s
  37. Channel(s)                     : 6 channels
  38. Channel layout                 : L R C LFE Ls Rs
  39. Sampling rate                  : 48.0 kHz
  40. Frame rate                     : 31.250 FPS (1536 SPF)
  41. Compression mode               : Lossy
  42. Stream size                    : 324 MiB (5%)
  43. Title                          : English
  44. Language                       : English
  45. Service kind                   : Complete Main
  46. Default                        : Yes
  47. Alternate group                : 1
  48. Tagged date                    : UTC 2022-03-24 09:08:14
  49. Complexity index               : Not present / 16
  50. Number of dynamic objects      : 15
  51. Bed channel count              : 1 channel
  52. Bed channel configuration      : LFE

  53. Text
  54. ID                             : 3
  55. Format                         : Timed Text
  56. Codec ID                       : tx3g
  57. Duration                       : 57 min 0 s
  58. Bit rate mode                  : Variable
  59. Bit rate                       : 58 b/s
  60. Stream size                    : 24.1 KiB (0%)
  61. Title                          : English
  62. Language                       : English
  63. Forced                         : No
  64. Encoded date                   : UTC 2022-03-24 09:08:14
  65. Tagged date                    : UTC 2022-03-24 09:08:14

复制代码

Hao4K.Halo.S01E01.HDR.2160p.WEB.H265-GGEZ.torrent (15.62 KB, 售价: 1 个K币)
回复

使用道具 举报

全部回复48

sw1301600633 2

22-3-25 14:39

杜比视界与HDR两个版本,看清自己设备所支持版本按需下载。
回复 支持 12 反对 0

使用道具 举报

bannerx 22-3-25 22:17 显示全部楼层

bannerx 3

22-3-25 22:17

这个和光环世界是一样的吗?
回复 支持 1 反对 0

使用道具 举报

zxcvbgasd 4

22-3-26 00:15

就一集
回复 支持 1 反对 0

使用道具 举报

jilinxiaoqiang 5

22-3-26 08:54

bannerx 发表于 22-3-25 22:17
这个和光环世界是一样的吗?

是同一个剧
回复 支持 1 反对 0

使用道具 举报

305484004 6

22-3-26 11:41

第二集啥时候更新呢
回复 支持 反对

使用道具 举报

陌潇影 7

22-3-27 10:09

305484004 发表于 22-3-26 11:41
第二集啥时候更新呢

第二集 北美时间:2022 年 03 月 31 日
第三集 北美时间:2022 年 04 月 07 日
第四集 北美时间:2022 年 04 月 14 日
第五集 北美时间:2022 年 04 月 21 日
第六集 北美时间:2022 年 04 月 28 日
第七集 北美时间:2022 年 05 月 05 日
第八集 北美时间:2022 年 05 月 12 日
第九集 北美时间:2022 年 05 月 19 日
信息来自:TMDB   https://www.themoviedb.org/tv/52814-halo/season/1
回复 支持 3 反对 1

使用道具 举报

fantasymeng 8

22-3-27 23:18

电影水准
回复 支持 反对

使用道具 举报

305484004 9

22-3-29 17:24

陌潇影 发表于 22-3-27 10:09
第二集 北美时间:2022 年 03 月 31 日
第三集 北美时间:2022 年 04 月 07 日
第四集 北美时间:2022  ...

T天哪 够能等的····
回复 支持 反对

使用道具 举报

陌潇影 10

22-3-29 22:03

305484004 发表于 22-3-29 17:24
T天哪 够能等的····

我准备耐着性子 等第一季完结再看
回复 支持 反对

使用道具 举报

laolifeidadao 11

22-3-29 23:20

感谢分享火爆大片。:)
回复 支持 反对

使用道具 举报

liukeshy 12

22-3-30 17:14

为啥我用potplayer播放画面会发紫的?
回复 支持 反对

使用道具 举报

liukeshy 13

22-3-30 17:15

sw1301600633 发表于 22-3-25 14:39
杜比视界与HDR两个版本,看清自己设备所支持版本按需下载。


为啥我用potplayer播放画面会发紫的?
回复 支持 反对

使用道具 举报

sw1301600633 14

22-3-30 19:30

liukeshy 发表于 22-3-30 17:15
为啥我用potplayer播放画面会发紫的?

因为不支持杜比视界啊,我在下面写很清楚了杜比视界与HDR两个版本,“看清”自己设备所支持版本按需下载。
回复 支持 反对

使用道具 举报

liukeshy 15

22-3-30 22:46

sw1301600633 发表于 22-3-30 19:30
因为不支持杜比视界啊,我在下面写很清楚了杜比视界与HDR两个版本,“看清”自己设备所支持版本按需下载 ...

重下了另一个,受教了
回复 支持 反对

使用道具 举报

gavin331 16

22-3-31 14:44

很好看,希望快点能更新!
回复 支持 反对

使用道具 举报

305484004 17

22-3-31 16:55

陌潇影 发表于 22-3-29 22:03
我准备耐着性子 等第一季完结再看

早知道先不看第一集··会想得··
回复 支持 反对

使用道具 举报

恶霸地主 18

22-4-2 08:54

第二集怎么还不发
回复 支持 反对

使用道具 举报

   发表回复

您需要登录后才可以回帖 登录 | 立即注册

返回列表 本版积分规则

  • 购买会员

  • 帮助

  • 回顶部