手机访问
| 4K世界 国内专业4K资源网站!

4K世界

电视剧频道
电视剧封面:
电视剧名: 卢克·凯奇 第一季4k
年  代: 2016  
国  家: 美国
类  别: 动作 科幻 
语  言: 英语
字  幕: 英文原版
上映日期: 2016-09-30
文件格式: mkv    
视频效果: 4K(3840x2160)    
资源大小: 14.42 GB
片  长: 55 分钟
导  演: 安迪·戈达德
剧情简介:  剧集《卢克·凯奇》中,这位天赋异禀的角色在纽约市黑人聚集地哈莱姆区重拾生活的过程中,被迫与他所在城市的核心人物,也就是马赫莎拉哈什巴兹·阿里饰演的Cornell Stokes展开斗争,而这一切都迫使他再度面对他想埋葬的过去。
  卢克·凯奇这个角色首次出现在《杰西卡·琼斯》之中,他是杰西卡·琼斯的爱人。在剧集中,卢克受重伤在被杰西卡送到医院时,遇到罗莎里奥·道森饰演的Claire Temple,Claire负责照顾卢克直到他清醒。而在《卢克·凯奇》中,观众将继续看到罗莎里奥·道森的身影,而饰演杰西卡·琼斯的克里斯滕·里特将不会参演。
Marvel's Luke Cage/卢克·凯奇 第一季4k.Marvels.Luke.Cage.S01E01.2160p.NF.WEBRip.DD5.1.x264-4k美剧信息
  1. Video
  2. ID : 1
  3. Format : AVC
  4. Format/Info : Advanced Video Codec
  5. Format profile : High@L5.1
  6. Format settings, CABAC : Yes
  7. Format settings, ReFrames : 5 frames
  8. Codec ID : V_MPEG4/ISO/AVC
  9. Duration : 54mn 3s
  10. Bit rate : 37.0 Mbps
  11. Width : 3 840 pixels
  12. Height : 2 160 pixels
  13. Display aspect ratio : 16:9
  14. Frame rate mode : Constant
  15. Frame rate : 23.976 (24000/1001) fps
  16. Color space : YUV
  17. Chroma subsampling : 4:2:0
  18. Bit depth : 8 bits
  19. Scan type : Progressive
  20. Bits/(Pixel*Frame) : 0.186
  21. Stream size : 14.0 GiB (97%)
  22. Writing library : x264 core 148 r2705 3f5ed56
  23. Encoding settings : cabac=1 / ref=5 / deblock=1:-3:-3 / analyse=0x3:0x133 / me=umh / subme=10 / psy=1 / psy_rd=1.05:0.00 / mixed_ref=1 / me_range=24 / chroma_me=1 / trellis=2 / 8x8dct=1 / cqm=0 / deadzone=21,11 / fast_pskip=1 / chroma_qp_offset=-2 / threads=24 / lookahead_threads=4 / sliced_threads=0 / nr=0 / decimate=1 / interlaced=0 / bluray_compat=0 / constrained_intra=0 / bframes=8 / b_pyramid=2 / b_adapt=2 / b_bias=0 / direct=3 / weightb=1 / open_gop=0 / weightp=2 / keyint=250 / keyint_min=23 / scenecut=40 / intra_refresh=0 / rc_lookahead=60 / rc=crf / mbtree=1 / crf=18.0 / qcomp=0.60 / qpmin=0 / qpmax=69 / qpstep=4 / ip_ratio=1.40 / aq=2:0.90
  24. Default : Yes
  25. Forced : No
  26. Color range : Limited
  27. Color primaries : BT.709
  28. Transfer characteristics : BT.709
  29. Matrix coefficients : BT.709

  30. Audio
  31. ID : 2
  32. Format : AC-3
  33. Format/Info : Audio Coding 3
  34. Mode extension : CM (complete main)
  35. Format settings, Endianness : Big
  36. Codec ID : A_AC3
  37. Duration : 54mn 4s
  38. Bit rate mode : Constant
  39. Bit rate : 384 Kbps
  40. Channel(s) : 6 channels
  41. Channel positions : Front: L C R, Side: L R, LFE
  42. Sampling rate : 48.0 KHz
  43. Frame rate : 31.250 fps (1536 spf)
  44. Compression mode : Lossy
  45. Stream size : 148 MiB (1%)
  46. Language : English
  47. Default : Yes
  48. Forced : No

  49. Text
  50. ID : 3
  51. Format : UTF-8
  52. Codec ID : S_TEXT/UTF8
  53. Codec ID/Info : UTF-8 Plain Text
  54. Language : English
  55. Default : Yes
  56. Forced : No
复制代码

Marvel's Luke Cage/卢克·凯奇 第一季4k.Marvels.Luke.Cage.S01E01.2160p.NF.WEBRip.DD5.1.x264-4k美剧下载

卢克·凯奇 第一季4k.Marvels.Luke.Cage.S01.2160p.NF.WEBRip.x265.10bit.HDR.DTS-HD.MA.5.1【4k 160.64 GB】
[4k视界]卢克·凯奇 第一季4k.Marvels.Luke.Cage.S01.2160p.NF.WEBRip.x265.10bit.HDR.DTS-HD.MA.5.1-TrollUHD.torrent (403.62 KB)
回复

使用道具 举报

全部回复3

wsyqing 22-5-12 13:08 显示全部楼层

wsyqing 2

22-5-12 13:08

合集资源是第二季的,请检查。
回复 支持 反对

使用道具 举报

ipings 22-5-12 13:14 显示全部楼层

ipings 3

22-5-12 13:14

漫威永不停歇
回复 支持 反对

使用道具 举报

jiangjy1023 4

22-5-12 18:18

为啥第一季才1集,第二季倒是全了
回复 支持 反对

使用道具 举报

   发表回复

您需要登录后才可以回帖 登录 | 立即注册

返回列表 本版积分规则

  • 帮助

  • 回顶部