4K世界

电视剧封面:
电视剧名: 聊天记录4k
年  代: 2022  
国  家: 美国
类  别: 剧情 爱情 
语  言: 英语
字  幕: 英文原版
上映日期: 2022-05-15
文件格式: mkv    
视频效果: 4K(3840x2160)    
资源大小: 36.80 GB
片  长: 30 分钟
导  演: 伦尼·阿伯拉罕森 / 利安娜·韦勒姆
剧情简介: 《聊天记录》讲述了21岁的大学生Frances,她经历了一系列的情感关系,这些关系迫使她第一次面对自己脆弱的一面。
  Frances善于观察,理智且敏锐。她的前女友、现闺蜜Bobbi,则是自信满满、直言不讳、引人注目。尽管两人三年前就分手了,但Frances和Bobbi依旧形影不离,一起在都柏林进行诗歌表演。
  在一次表演过后,她们结识了更为年长的作家Melissa,以及她的丈夫Nick,一位帅气但沉默寡言的帅气演员。Mellisa对两人非常感兴趣,四人便开始了来往。
  当Mellisa和Bobbi公然调情的时候,Frances和Nick展开了一段秘密又炽烈的地下情,这一关系让两人都很意外。很快,这段恋情开始考验Frances和Bobbi的关系,迫使Frances重新审视自我意识,和自己非常珍重的友情。
聊天记录4k.Conversations.with.Friends.S01.2160p.HULU.WEB-DL.DDP5.1.x265-4k美剧信息
  1. Video
  2. ID : 1
  3. Format : HEVC
  4. Format/Info : High Efficiency Video Coding
  5. Format profile : Main 10@L5.1@Main
  6. Codec ID : V_MPEGH/ISO/HEVC
  7. Duration : 31 min 2 s
  8. Bit rate : 15.4 Mb/s
  9. Width : 3 840 pixels
  10. Height : 2 160 pixels
  11. Display aspect ratio : 16:9
  12. Frame rate mode : Constant
  13. Frame rate : 25.000 FPS
  14. Color space : YUV
  15. Chroma subsampling : 4:2:0
  16. Bit depth : 10 bits
  17. Bits/(Pixel*Frame) : 0.074
  18. Stream size : 3.34 GiB (98%)
  19. Default : Yes
  20. Forced : No

  21. Audio
  22. ID : 2
  23. Format : E-AC-3
  24. Format/Info : Enhanced AC-3
  25. Commercial name : Dolby Digital Plus
  26. Codec ID : A_EAC3
  27. Duration : 31 min 2 s
  28. Bit rate mode : Constant
  29. Bit rate : 256 kb/s
  30. Channel(s) : 6 channels
  31. Channel layout : L R C LFE Ls Rs
  32. Sampling rate : 48.0 kHz
  33. Frame rate : 31.250 FPS (1536 SPF)
  34. Compression mode : Lossy
  35. Stream size : 56.8 MiB (2%)
  36. Language : English
  37. Service kind : Complete Main
  38. Default : Yes
  39. Forced : No

  40. Text #1
  41. ID : 3
  42. Format : UTF-8
  43. Codec ID : S_TEXT/UTF8
  44. Codec ID/Info : UTF-8 Plain Text
  45. Duration : 30 min 40 s
  46. Bit rate : 55 b/s
  47. Count of elements : 449
  48. Stream size : 12.5 KiB (0%)
  49. Language : English
  50. Default : No
  51. Forced : No

  52. Text #2
  53. ID : 4
  54. Format : UTF-8
  55. Codec ID : S_TEXT/UTF8
  56. Codec ID/Info : UTF-8 Plain Text
  57. Duration : 30 min 56 s
  58. Bit rate : 69 b/s
  59. Count of elements : 551
  60. Stream size : 15.8 KiB (0%)
  61. Title : SDH
  62. Language : English
  63. Default : No
  64. Forced : No

  65. Text #3
  66. ID : 5
  67. Format : UTF-8
  68. Codec ID : S_TEXT/UTF8
  69. Codec ID/Info : UTF-8 Plain Text
  70. Duration : 30 min 56 s
  71. Bit rate : 65 b/s
  72. Count of elements : 575
  73. Stream size : 14.9 KiB (0%)
  74. Title : SDH
  75. Language : Spanish
  76. Default : No
  77. Forced : No

  78. Menu
  79. 00:06:24.000 : en:Chapter 1
  80. 00:19:17.000 : en:Chapter 2
  81. 00:25:05.000 : en:Chapter 3
复制代码

聊天记录4k.Conversations.with.Friends.S01.2160p.HULU.WEB-DL.DDP5.1.x265-4k美剧下载

聊天记录4k.Conversations.with.Friends.S01.2160p.HULU.WEB-DL.DDP5.1.x265【4k 36.80 GB】
[4k视界 ]聊天记录4k.Conversations.with.Friends.S01.2160p.HULU.WEB-DL.DDP5.1.x265-SMURF.torrent (47.93 KB)
回复

使用道具 举报

   发表回复

您需要登录后才可以回帖 登录 | 立即注册

返回列表 本版积分规则

  • 购买会员

  • 帮助

  • 回顶部