手机访问
| 4K世界 国内专业4K资源网站!

4K世界

电视剧频道
电视剧封面:
电视剧名: 他的秘密生活4k
年  代: 2022  
国  家: 意大利
类  别: 剧情 喜剧 爱情 
语  言: 英语
字  幕: 英文原版
上映日期: 2022-04-13
文件格式: mkv    
视频效果: 4K(3840x2160)    
资源大小: 44.23 GB
片  长: 50 分钟
导  演: 弗森·欧兹派特
剧情简介:  The drama, staged by R&C Productions, follows Antonia, who, after her husband is killed in a car accident, discovers that he had been having a same-sex affair with a man named Michele. The woman will find herself building an unexpected friendship with Michele and his circle of misfit eccentrics.
The Ignorant Angels/他的秘密生活4k.The.Ignorant.Angels.S01.ITALIAN.2160p.DSNP.WEB-DL.x265.10bit.HDR.DDP5.1-意大利据信息
  1. Video
  2. ID : 1
  3. Format : HEVC
  4. Format/Info : High Efficiency Video Coding
  5. Format profile : Main 10@L5@High
  6. HDR format : SMPTE ST 2086, HDR10 compatible
  7. Codec ID : V_MPEGH/ISO/HEVC
  8. Duration : 59 min 2 s
  9. Bit rate : 16.1 Mb/s
  10. Width : 3 840 pixels
  11. Height : 2 160 pixels
  12. Display aspect ratio : 16:9
  13. Frame rate mode : Constant
  14. Frame rate : 25.000 FPS
  15. Color space : YUV
  16. Chroma subsampling : 4:2:0
  17. Bit depth : 10 bits
  18. Bits/(Pixel*Frame) : 0.078
  19. Stream size : 6.66 GiB (98%)
  20. Language : Italian
  21. Default : Yes
  22. Forced : No
  23. Color range : Limited
  24. Color primaries : BT.2020
  25. Transfer characteristics : PQ
  26. Matrix coefficients : BT.2020 non-constant
  27. Mastering display color primaries : BT.2020
  28. Mastering display luminance : min: 0.0001 cd/m2, max: 1000 cd/m2

  29. Audio
  30. ID : 2
  31. Format : E-AC-3
  32. Format/Info : Enhanced AC-3
  33. Commercial name : Dolby Digital Plus
  34. Codec ID : A_EAC3
  35. Duration : 59 min 2 s
  36. Bit rate mode : Constant
  37. Bit rate : 256 kb/s
  38. Channel(s) : 6 channels
  39. Channel layout : L R C LFE Ls Rs
  40. Sampling rate : 48.0 kHz
  41. Frame rate : 31.250 FPS (1536 SPF)
  42. Compression mode : Lossy
  43. Stream size : 108 MiB (2%)
  44. Language : Italian
  45. Service kind : Complete Main
  46. Default : Yes
  47. Forced : No

  48. Text #1
  49. ID : 3
  50. Format : UTF-8
  51. Codec ID : S_TEXT/UTF8
  52. Codec ID/Info : UTF-8 Plain Text
  53. Duration : 56 min 25 s
  54. Bit rate : 67 b/s
  55. Count of elements : 779
  56. Stream size : 27.9 KiB (0%)
  57. Title : English (forced)
  58. Language : English
  59. Default : Yes
  60. Forced : Yes

  61. Text #2
  62. ID : 4
  63. Format : UTF-8
  64. Codec ID : S_TEXT/UTF8
  65. Codec ID/Info : UTF-8 Plain Text
  66. Duration : 58 min 20 s
  67. Bit rate : 46 b/s
  68. Count of elements : 600
  69. Stream size : 19.9 KiB (0%)
  70. Title : Italiano [CC]
  71. Language : Italian
  72. Default : No
  73. Forced : No

  74. Text #3
  75. ID : 5
  76. Format : UTF-8
  77. Codec ID : S_TEXT/UTF8
  78. Codec ID/Info : UTF-8 Plain Text
  79. Duration : 58 min 58 s
  80. Bit rate : 53 b/s
  81. Count of elements : 652
  82. Stream size : 23.0 KiB (0%)
  83. Title : Dansk
  84. Language : Danish
  85. Default : No
  86. Forced : No

  87. Text #4
  88. ID : 6
  89. Format : UTF-8
  90. Codec ID : S_TEXT/UTF8
  91. Codec ID/Info : UTF-8 Plain Text
  92. Duration : 58 min 58 s
  93. Bit rate : 51 b/s
  94. Count of elements : 640
  95. Stream size : 22.1 KiB (0%)
  96. Title : Deutsch
  97. Language : German
  98. Default : No
  99. Forced : No

  100. Text #5
  101. ID : 7
  102. Format : UTF-8
  103. Codec ID : S_TEXT/UTF8
  104. Codec ID/Info : UTF-8 Plain Text
  105. Duration : 58 min 58 s
  106. Bit rate : 85 b/s
  107. Count of elements : 649
  108. Stream size : 37.1 KiB (0%)
  109. Title : Greek
  110. Language : Greek
  111. Default : No
  112. Forced : No

  113. Text #6
  114. ID : 8
  115. Format : UTF-8
  116. Codec ID : S_TEXT/UTF8
  117. Codec ID/Info : UTF-8 Plain Text
  118. Duration : 58 min 58 s
  119. Bit rate : 49 b/s
  120. Count of elements : 629
  121. Stream size : 21.6 KiB (0%)
  122. Title : Español
  123. Language : Spanish
  124. Default : No
  125. Forced : No

  126. Text #7
  127. ID : 9
  128. Format : UTF-8
  129. Codec ID : S_TEXT/UTF8
  130. Codec ID/Info : UTF-8 Plain Text
  131. Duration : 58 min 58 s
  132. Bit rate : 49 b/s
  133. Count of elements : 654
  134. Stream size : 21.3 KiB (0%)
  135. Title : Español (Latinoamericano)
  136. Language : Spanish
  137. Default : No
  138. Forced : No

  139. Text #8
  140. ID : 10
  141. Format : UTF-8
  142. Codec ID : S_TEXT/UTF8
  143. Codec ID/Info : UTF-8 Plain Text
  144. Duration : 58 min 58 s
  145. Bit rate : 51 b/s
  146. Count of elements : 650
  147. Stream size : 22.4 KiB (0%)
  148. Title : Suomi
  149. Language : Finnish
  150. Default : No
  151. Forced : No

  152. Text #9
  153. ID : 11
  154. Format : UTF-8
  155. Codec ID : S_TEXT/UTF8
  156. Codec ID/Info : UTF-8 Plain Text
  157. Duration : 58 min 58 s
  158. Bit rate : 52 b/s
  159. Count of elements : 640
  160. Stream size : 22.9 KiB (0%)
  161. Title : Français
  162. Language : French
  163. Default : No
  164. Forced : No

  165. Text #10
  166. ID : 12
  167. Format : UTF-8
  168. Codec ID : S_TEXT/UTF8
  169. Codec ID/Info : UTF-8 Plain Text
  170. Duration : 58 min 56 s
  171. Bit rate : 47 b/s
  172. Count of elements : 672
  173. Stream size : 20.6 KiB (0%)
  174. Title : Japanese
  175. Language : Japanese
  176. Default : No
  177. Forced : No

  178. Text #11
  179. ID : 13
  180. Format : UTF-8
  181. Codec ID : S_TEXT/UTF8
  182. Codec ID/Info : UTF-8 Plain Text
  183. Duration : 58 min 58 s
  184. Bit rate : 59 b/s
  185. Count of elements : 654
  186. Stream size : 25.5 KiB (0%)
  187. Title : Korean
  188. Language : Korean
  189. Default : No
  190. Forced : No

  191. Text #12
  192. ID : 14
  193. Format : UTF-8
  194. Codec ID : S_TEXT/UTF8
  195. Codec ID/Info : UTF-8 Plain Text
  196. Duration : 58 min 58 s
  197. Bit rate : 46 b/s
  198. Count of elements : 604
  199. Stream size : 20.2 KiB (0%)
  200. Title : Nederlands
  201. Language : Dutch
  202. Default : No
  203. Forced : No

  204. Text #13
  205. ID : 15
  206. Format : UTF-8
  207. Codec ID : S_TEXT/UTF8
  208. Codec ID/Info : UTF-8 Plain Text
  209. Duration : 58 min 58 s
  210. Bit rate : 44 b/s
  211. Count of elements : 531
  212. Stream size : 19.2 KiB (0%)
  213. Title : Norsk
  214. Language : Norwegian
  215. Default : No
  216. Forced : No

  217. Text #14
  218. ID : 16
  219. Format : UTF-8
  220. Codec ID : S_TEXT/UTF8
  221. Codec ID/Info : UTF-8 Plain Text
  222. Duration : 58 min 58 s
  223. Bit rate : 46 b/s
  224. Count of elements : 631
  225. Stream size : 19.9 KiB (0%)
  226. Title : Polski
  227. Language : Polish
  228. Default : No
  229. Forced : No

  230. Text #15
  231. ID : 17
  232. Format : UTF-8
  233. Codec ID : S_TEXT/UTF8
  234. Codec ID/Info : UTF-8 Plain Text
  235. Duration : 58 min 58 s
  236. Bit rate : 52 b/s
  237. Count of elements : 654
  238. Stream size : 22.5 KiB (0%)
  239. Title : Português
  240. Language : Portuguese
  241. Default : No
  242. Forced : No

  243. Text #16
  244. ID : 18
  245. Format : UTF-8
  246. Codec ID : S_TEXT/UTF8
  247. Codec ID/Info : UTF-8 Plain Text
  248. Duration : 58 min 58 s
  249. Bit rate : 48 b/s
  250. Count of elements : 651
  251. Stream size : 20.7 KiB (0%)
  252. Title : Português (Brasil)
  253. Language : Portuguese
  254. Default : No
  255. Forced : No

  256. Text #17
  257. ID : 19
  258. Format : UTF-8
  259. Codec ID : S_TEXT/UTF8
  260. Codec ID/Info : UTF-8 Plain Text
  261. Duration : 58 min 58 s
  262. Bit rate : 48 b/s
  263. Count of elements : 594
  264. Stream size : 21.2 KiB (0%)
  265. Title : Romană
  266. Language : Romanian
  267. Default : No
  268. Forced : No

  269. Text #18
  270. ID : 20
  271. Format : UTF-8
  272. Codec ID : S_TEXT/UTF8
  273. Codec ID/Info : UTF-8 Plain Text
  274. Duration : 58 min 58 s
  275. Bit rate : 49 b/s
  276. Count of elements : 627
  277. Stream size : 21.4 KiB (0%)
  278. Title : Svenska
  279. Language : Swedish
  280. Default : No
  281. Forced : No

  282. Text #19
  283. ID : 21
  284. Format : UTF-8
  285. Codec ID : S_TEXT/UTF8
  286. Codec ID/Info : UTF-8 Plain Text
  287. Duration : 58 min 58 s
  288. Bit rate : 37 b/s
  289. Count of elements : 466
  290. Stream size : 16.0 KiB (0%)
  291. Title : Türkçe
  292. Language : Turkish
  293. Default : No
  294. Forced : No

  295. Text #20
  296. ID : 22
  297. Format : UTF-8
  298. Codec ID : S_TEXT/UTF8
  299. Codec ID/Info : UTF-8 Plain Text
  300. Duration : 58 min 58 s
  301. Bit rate : 49 b/s
  302. Count of elements : 654
  303. Stream size : 21.4 KiB (0%)
  304. Title : Chinese (Traditional)
  305. Language : Chinese
  306. Default : No
  307. Forced : No

  308. Text #21
  309. ID : 23
  310. Format : UTF-8
  311. Codec ID : S_TEXT/UTF8
  312. Codec ID/Info : UTF-8 Plain Text
  313. Duration : 58 min 58 s
  314. Bit rate : 45 b/s
  315. Count of elements : 654
  316. Stream size : 19.7 KiB (0%)
  317. Title : Chinese (Simplified)
  318. Language : Chinese
  319. Default : No
  320. Forced : No
复制代码

The Ignorant Angels/他的秘密生活4k.The.Ignorant.Angels.S01.ITALIAN.2160p.DSNP.WEB-DL.x265.10bit.HDR.DDP5.1-意大利据下载

他的秘密生活4k.The.Ignorant.Angels.S01.ITALIAN.2160p.DSNP.WEB-DL.x265.10bit.HDR.DDP5.1自带简繁中字【4k HDR 44.23 GB】
[4k视界]他的秘密生活4k.The.Ignorant.Angels.S01.ITALIAN.2160p.DSNP.WEB-DL.x265.10bit.HDR.DDP5.1-KOGi.torrent (56.54 KB)
回复

使用道具 举报

   发表回复

您需要登录后才可以回帖 登录 | 立即注册

返回列表 本版积分规则

  • 帮助

  • 回顶部