手机访问
| 4K世界 国内专业4K资源网站!

4K世界

电视剧频道
电视剧封面:
电视剧名: 甜蜜家园4k
年  代: 2022  
国  家: 韩国
类  别: 剧情 
语  言: 其他
字  幕: 其他字幕
上映日期: 2020-12-18
文件格式: mkv    
视频效果: 4K(3840x2160)    
资源大小: 44.50 GB
片  长: 48 分钟
导  演: 李应福
剧情简介: 充满绝望的世界和毫无留恋的少年, 甩开现实恐慌只能正面迎击!
  孤独高中生车贤秀(宋江 饰)的家人在一次事故中去世,之后搬到了一个新公寓,他平静的生活很快就被新住所里开始发生的奇怪事件所扰乱,当人们变成怪物时,贤洙和其他居民开始为生存而奋斗。
  故事改编自金坎比和黄英璨共同创作连载于Webtoon的同名漫画。
内冷外热 / Sweet Home/甜蜜家园4k.Sweet.Home.S01.KOREAN.2160p.NF.WEB-DL.x265.10bit.SDR.DDP5.1-4k韩剧信息
  1. Video
  2. ID : 1
  3. Format : HEVC
  4. Format/Info : High Efficiency Video Coding
  5. Format profile : Main 10@L5@Main
  6. Codec ID : V_MPEGH/ISO/HEVC
  7. Duration : 59 min 12 s
  8. Bit rate : 11.8 Mb/s
  9. Width : 3 840 pixels
  10. Height : 2 160 pixels
  11. Display aspect ratio : 16:9
  12. Frame rate mode : Constant
  13. Frame rate : 23.976 (24000/1001) FPS
  14. Color space : YUV
  15. Chroma subsampling : 4:2:0
  16. Bit depth : 10 bits
  17. Bits/(Pixel*Frame) : 0.059
  18. Stream size : 4.87 GiB (95%)
  19. Default : Yes
  20. Forced : No
  21. Color range : Limited
  22. Color primaries : BT.709
  23. Transfer characteristics : BT.709
  24. Matrix coefficients : BT.709

  25. Audio
  26. ID : 2
  27. Format : E-AC-3
  28. Format/Info : Enhanced AC-3
  29. Commercial name : Dolby Digital Plus
  30. Codec ID : A_EAC3
  31. Duration : 59 min 12 s
  32. Bit rate mode : Constant
  33. Bit rate : 640 kb/s
  34. Channel(s) : 6 channels
  35. Channel layout : L R C LFE Ls Rs
  36. Sampling rate : 48.0 kHz
  37. Frame rate : 31.250 FPS (1536 SPF)
  38. Compression mode : Lossy
  39. Stream size : 271 MiB (5%)
  40. Language : Korean
  41. Service kind : Complete Main
  42. Default : Yes
  43. Forced : No

  44. Text #1
  45. ID : 3
  46. Format : UTF-8
  47. Codec ID : S_TEXT/UTF8
  48. Codec ID/Info : UTF-8 Plain Text
  49. Duration : 4 s 46 ms
  50. Bit rate : 69 b/s
  51. Count of elements : 1
  52. Stream size : 35.0 Bytes (0%)
  53. Title : Forced
  54. Language : Korean
  55. Default : Yes
  56. Forced : Yes

  57. Text #2
  58. ID : 4
  59. Format : UTF-8
  60. Codec ID : S_TEXT/UTF8
  61. Codec ID/Info : UTF-8 Plain Text
  62. Duration : 55 min 2 s
  63. Bit rate : 46 b/s
  64. Count of elements : 573
  65. Stream size : 18.7 KiB (0%)
  66. Title : SDH
  67. Language : Korean
  68. Default : No
  69. Forced : No

  70. Text #3
  71. ID : 5
  72. Format : UTF-8
  73. Codec ID : S_TEXT/UTF8
  74. Codec ID/Info : UTF-8 Plain Text
  75. Duration : 57 min 25 s
  76. Bit rate : 22 b/s
  77. Count of elements : 414
  78. Stream size : 9.33 KiB (0%)
  79. Language : German
  80. Default : No
  81. Forced : No

  82. Text #4
  83. ID : 6
  84. Format : UTF-8
  85. Codec ID : S_TEXT/UTF8
  86. Codec ID/Info : UTF-8 Plain Text
  87. Duration : 57 min 2 s
  88. Bit rate : 23 b/s
  89. Count of elements : 414
  90. Stream size : 9.62 KiB (0%)
  91. Language : English
  92. Default : No
  93. Forced : No

  94. Text #5
  95. ID : 7
  96. Format : UTF-8
  97. Codec ID : S_TEXT/UTF8
  98. Codec ID/Info : UTF-8 Plain Text
  99. Duration : 57 min 19 s
  100. Bit rate : 34 b/s
  101. Count of elements : 629
  102. Stream size : 14.7 KiB (0%)
  103. Title : SDH
  104. Language : English
  105. Default : No
  106. Forced : No

  107. Text #6
  108. ID : 8
  109. Format : UTF-8
  110. Codec ID : S_TEXT/UTF8
  111. Codec ID/Info : UTF-8 Plain Text
  112. Duration : 57 min 29 s
  113. Bit rate : 23 b/s
  114. Count of elements : 415
  115. Stream size : 9.87 KiB (0%)
  116. Language : French
  117. Default : No
  118. Forced : No

  119. Text #7
  120. ID : 9
  121. Format : UTF-8
  122. Codec ID : S_TEXT/UTF8
  123. Codec ID/Info : UTF-8 Plain Text
  124. Duration : 57 min 25 s
  125. Bit rate : 35 b/s
  126. Count of elements : 400
  127. Stream size : 14.8 KiB (0%)
  128. Language : Russian
  129. Default : No
  130. Forced : No

  131. Text #8
  132. ID : 10
  133. Format : UTF-8
  134. Codec ID : S_TEXT/UTF8
  135. Codec ID/Info : UTF-8 Plain Text
  136. Duration : 57 min 25 s
  137. Bit rate : 35 b/s
  138. Count of elements : 416
  139. Stream size : 14.8 KiB (0%)
  140. Language : Ukrainian
  141. Default : No
  142. Forced : No

  143. Menu
  144. 00:00:00.000 : en:Part 01
  145. 00:01:47.500 : en:Intro
  146. 00:02:30.250 : en:Part 02
  147. 00:55:07.450 : en:Credits
复制代码

内冷外热 / Sweet Home/甜蜜家园4k.SSweet.Home.S01.KOREAN.2160p.NF.WEB-DL.x265.10bit.SDR.DDP5.1-韩剧下载

甜蜜家园4k.SSweet.Home.S01.KOREAN.2160p.NF.WEB-DL.x265.10bit.SDR.DDP5.1【4k SDR 44.50 GB】
[4k视界]甜蜜家园4k.Sweet.Home.S01.KOREAN.2160p.NF.WEB-DL.x265.10bit.SDR.DDP5.1-PANCAKES.torrent (57.08 KB, 售价: 2 个K币)
回复

使用道具 举报

全部回复2

施华蔻 2

22-5-18 19:45

其实很期待低俗怪谈有4K版本的
回复 支持 反对

使用道具 举报

4328258 22-6-15 14:19 显示全部楼层

4328258 3

22-6-15 14:19

僵尸校园的4k怎么还不出来呢,这个都出来了
回复 支持 反对

使用道具 举报

   发表回复

您需要登录后才可以回帖 登录 | 立即注册

返回列表 本版积分规则

  • 帮助

  • 回顶部