手机访问
| 4K世界 国内专业4K资源网站!

4K世界

电视剧频道
电视剧封面:
电视剧名: 比利小子4k
年  代: 2022  
国  家: 美国
类  别: 冒险 爱情 
语  言: 英语
字  幕: 英文原版
上映日期: 2022-04-24
文件格式: mkv    
视频效果: 4K(3840x2160)    
资源大小: 4.32 GB
片  长: -
导  演: 奥图·巴瑟赫斯特
剧情简介: An epic romantic adventure based on the life of Billy the Kid, from his humble Irish roots and his early days as a cowboy and gunslinger in the American frontier, to his pivotal role in the Lincoln County War and beyond.
比利小子4k.Billy.The.Kid.S01E01.2160p.WEB-DL.DDP5.1.x265-4k美剧信息
  1. Video
  2. ID : 1
  3. Format : HEVC
  4. Format/Info : High Efficiency Video Coding
  5. Format profile : Main 10@L5@High
  6. Codec ID : V_MPEGH/ISO/HEVC
  7. Duration : 49 min 10 s
  8. Bit rate : 11.9 Mb/s
  9. Width : 3 836 pixels
  10. Height : 1 916 pixels
  11. Display aspect ratio : 2.002
  12. Frame rate mode : Constant
  13. Frame rate : 23.976 FPS
  14. Color space : YUV
  15. Chroma subsampling : 4:2:0
  16. Bit depth : 10 bits
  17. Bits/(Pixel*Frame) : 0.068
  18. Stream size : 4.10 GiB (95%)
  19. Default : Yes
  20. Forced : No
  21. Color range : Limited
  22. Color primaries : BT.709
  23. Transfer characteristics : BT.709
  24. Matrix coefficients : BT.709

  25. Audio
  26. ID : 2
  27. Format : E-AC-3
  28. Format/Info : Enhanced AC-3
  29. Commercial name : Dolby Digital Plus
  30. Codec ID : A_EAC3
  31. Duration : 49 min 10 s
  32. Bit rate mode : Constant
  33. Bit rate : 640 kb/s
  34. Channel(s) : 6 channels
  35. Channel layout : L R C LFE Ls Rs
  36. Sampling rate : 48.0 kHz
  37. Frame rate : 31.250 FPS (1536 SPF)
  38. Compression mode : Lossy
  39. Delay relative to video : 24 ms
  40. Stream size : 225 MiB (5%)
  41. Language : English
  42. Service kind : Complete Main
  43. Default : Yes
  44. Forced : No

  45. Text #1
  46. ID : 3
  47. Format : UTF-8
  48. Codec ID : S_TEXT/UTF8
  49. Codec ID/Info : UTF-8 Plain Text
  50. Duration : 45 min 18 s
  51. Bit rate : 38 b/s
  52. Count of elements : 435
  53. Stream size : 12.9 KiB (0%)
  54. Language : English
  55. Default : Yes
  56. Forced : No

  57. Text #2
  58. ID : 4
  59. Format : UTF-8
  60. Codec ID : S_TEXT/UTF8
  61. Codec ID/Info : UTF-8 Plain Text
  62. Duration : 46 min 29 s
  63. Bit rate : 47 b/s
  64. Count of elements : 577
  65. Stream size : 16.2 KiB (0%)
  66. Title : SDH
  67. Language : English
  68. Default : No
  69. Forced : No
复制代码

比利小子4k.Billy.The.Kid.S01E01.2160p.WEB-DL.DDP5.1.x265-4k美剧下载

比利小子4k.Billy.The.Kid.2022.S01.2160p.WEB-DL.DDP5.1.x265【34.40GB】
[4k世界]比利小子4k.Billy.The.Kid.2022.S01.2160p.WEB-DL.DDP5.1.x265-NTb.torrent (44.26 KB)
回复

使用道具 举报

   发表回复

您需要登录后才可以回帖 登录 | 立即注册

返回列表 本版积分规则

  • 帮助

  • 回顶部