4K世界

General
Unique ID                      : 60055230902329581170045843860682714940 (0x2D2E377D01827FF8A44E5F77D9A82F3C)
Complete name                  : D:\精灵旅社4:变身大冒险 DIY 国语 Hotel.Transylvania.4.Transformania (2022) [2160p] [HDR] [HEVC] [WEB-DL] [From Esperanza]\Hotel.Transylvania.4.Transformania (2022) [2160p] [HDR] [HEVC] [WEB-DL] [DDP5.1.Atmos] [AC3-5.1 Dubbing PL] [From Esperanza].mkvFormat                         : Matroska
Format version                 : Version 4
File size                      : 17.5 GiB
Duration                       : 1 h 27 min
Overall bit rate               : 28.7 Mb/s
Movie name                     : Hotel.Transylvania.4.Transformania (2022) [2160p] [HDR] [HEVC] [WEB-DL] [DDP5.1.Atmos] [AC3-5.1 Dubbing PL] [From Esperanza]
Encoded date                   : UTC 2022-09-17 07:35:13
Writing application            : mkvmerge v68.0.0 ('The Curtain') 64-bit
Writing library                : libebml v1.4.2 + libmatroska v1.6.4

Video
ID                             : 1
ID in the original source medi : 4113 (0x1011)
Format                         : HEVC
Format/Info                    : High Efficiency Video Coding
Format profile                 : Main 10@L5.1@High
HDR format                     : SMPTE ST 2086, HDR10 compatible
Codec ID                       : V_MPEGH/ISO/HEVC
Duration                       : 1 h 27 min
Bit rate                       : 26.7 Mb/s
Width                          : 3 840 pixels
Height                         : 2 160 pixels
Display aspect ratio           : 16:9
Frame rate mode                : Constant
Frame rate                     : 23.976 (24000/1001) FPS
Color space                    : YUV
Chroma subsampling             : 4:2:0 (Type 2)
Bit depth                      : 10 bits
Bits/(Pixel*Frame)             : 0.134
Stream size                    : 16.3 GiB (93%)
Title                          : Hotel.Transylvania.4.Transformania (2022) [Dla devil-torrents.pl from Esperanza]
Default                        : Yes
Forced                         : No
Color range                    : Limited
Color primaries                : BT.2020
Transfer characteristics       : PQ
Matrix coefficients            : BT.2020 non-constant
Mastering display color primar : Display P3
Mastering display luminance    : min: 0.0001 cd/m2, max: 1000 cd/m2
Maximum Content Light Level    : 429 cd/m2
Maximum Frame-Average Light Le : 323 cd/m2
Original source medium         : Blu-ray

Audio #1
ID                             : 2
Format                         : E-AC-3
Format/Info                    : Enhanced AC-3
Commercial name                : Dolby Digital Plus
Codec ID                       : A_EAC3
Duration                       : 1 h 27 min
Bit rate mode                  : Constant
Bit rate                       : 640 kb/s
Channel(s)                     : 6 channels
Channel layout                 : L R C LFE Ls Rs
Sampling rate                  : 48.0 kHz
Frame rate                     : 31.250 FPS (1536 SPF)
Compression mode               : Lossy
Stream size                    : 401 MiB (2%)
Language                       : English
Service kind                   : Complete Main
Default                        : Yes
Forced                         : No

Audio #2
ID                             : 3
Format                         : E-AC-3
Format/Info                    : Enhanced AC-3
Commercial name                : Dolby Digital Plus
Codec ID                       : A_EAC3
Duration                       : 1 h 27 min
Bit rate mode                  : Constant
Bit rate                       : 640 kb/s
Channel(s)                     : 6 channels
Channel layout                 : L R C LFE Ls Rs
Sampling rate                  : 48.0 kHz
Frame rate                     : 31.250 FPS (1536 SPF)
Compression mode               : Lossy
Stream size                    : 401 MiB (2%)
Title                          : ( China )
Language                       : Chinese
Service kind                   : Complete Main
Default                        : No
Forced                         : No

Audio #3
ID                             : 4
Format                         : E-AC-3
Format/Info                    : Enhanced AC-3
Commercial name                : Dolby Digital Plus
Codec ID                       : A_EAC3
Duration                       : 1 h 27 min
Bit rate mode                  : Constant
Bit rate                       : 640 kb/s
Channel(s)                     : 6 channels
Channel layout                 : L R C LFE Ls Rs
Sampling rate                  : 48.0 kHz
Frame rate                     : 31.250 FPS (1536 SPF)
Compression mode               : Lossy
Stream size                    : 401 MiB (2%)
Title                          : ( China Taiwan )
Language                       : Chinese
Service kind                   : Complete Main
Default                        : No
Forced                         : No

Text
ID                             : 5
Format                         : UTF-8
Codec ID                       : S_TEXT/UTF8
Codec ID/Info                  : UTF-8 Plain Text
Duration                       : 1 h 26 min
Bit rate                       : 40 b/s
Count of elements              : 1149
Stream size                    : 25.5 KiB (0%)
Title                          : Simplified
Language                       : Chinese
Default                        : No
Forced                         : No

高码视频DIY双国语自带一个简体字幕,外挂简单中英特效字幕
https://www.aliyundrive.com/s/YAqaKgjogiN
f7246b600c3387445f5bdf0c76ef73f1d62aa009.jpeg
回复

使用道具 举报

   发表回复

您需要登录后才可以回帖 登录 | 立即注册

返回列表 本版积分规则

  • 购买会员

  • 帮助

  • 回顶部