4K世界

电视剧封面:
电视剧名: 医院五日4k
年  代: 2022  
国  家: 美国
类  别: 剧情 
语  言: 英语
字  幕: 英文原版
上映日期: 2022-08-12
文件格式: mkv    
视频效果: 4K(3840x2160)    
资源大小: 56.80 GB
片  长: -
导  演: 约翰·里德利 / 卡尔顿·库斯
剧情简介: 该剧改编自Sheri Fink的同名纪实文学,讲述新奥尔良一家医院里精疲力竭的护理人员在风暴过后被迫做出令人心碎的决定的故事。
  在卡特里娜飓风席卷新奥尔良后,当时新奥尔纪念医疗中心遭受洪水泛滥、电力中断、气温急升等问题,而医务人员在这种恶劣环境下被迫作出困扰他们未来多年的选择。医院最终有40名死者,其中有些患者被认为无法活下去,故安排了安乐死。
医院五天 / 纪念医院的五日/医院五日4k.Five.Days.at.Memorial.S01.2160p.ATVP.WEB-DL.x265.10bit.SDR.DDP5.1.Atmos-4k美剧信息
  1. Video
  2. ID : 1
  3. Format : HEVC
  4. Format/Info : High Efficiency Video Coding
  5. Format profile : Main 10@L5@High
  6. Codec ID : V_MPEGH/ISO/HEVC
  7. Duration : 53 min 54 s
  8. Bit rate : 20.6 Mb/s
  9. Width : 3 840 pixels
  10. Height : 2 160 pixels
  11. Display aspect ratio : 16:9
  12. Frame rate mode : Constant
  13. Frame rate : 23.976 (24000/1001) FPS
  14. Color space : YUV
  15. Chroma subsampling : 4:2:0
  16. Bit depth : 10 bits
  17. Bits/(Pixel*Frame) : 0.104
  18. Stream size : 7.76 GiB (96%)
  19. Default : Yes
  20. Forced : No
  21. Color range : Limited
  22. Color primaries : BT.709
  23. Transfer characteristics : BT.709
  24. Matrix coefficients : BT.709

  25. Audio
  26. ID : 2
  27. Format : E-AC-3 JOC
  28. Format/Info : Enhanced AC-3 with Joint Object Coding
  29. Commercial name : Dolby Digital Plus with Dolby Atmos
  30. Codec ID : A_EAC3
  31. Duration : 53 min 54 s
  32. Bit rate mode : Constant
  33. Bit rate : 768 kb/s
  34. Channel(s) : 6 channels
  35. Channel layout : L R C LFE Ls Rs
  36. Sampling rate : 48.0 kHz
  37. Frame rate : 31.250 FPS (1536 SPF)
  38. Compression mode : Lossy
  39. Stream size : 296 MiB (4%)
  40. Language : English
  41. Service kind : Complete Main
  42. Default : Yes
  43. Forced : No
  44. Complexity index : 16
  45. Number of dynamic objects : 15
  46. Bed channel count : 1 channel
  47. Bed channel configuration : LFE

  48. Text #1
  49. ID : 3
  50. Format : UTF-8
  51. Codec ID : S_TEXT/UTF8
  52. Codec ID/Info : UTF-8 Plain Text
  53. Duration : 50 min 1 s
  54. Bit rate : 85 b/s
  55. Frame rate : 0.246 FPS
  56. Count of elements : 738
  57. Stream size : 31.2 KiB (0%)
  58. Language : English
  59. Default : No
  60. Forced : No

  61. Text #2
  62. ID : 4
  63. Format : UTF-8
  64. Codec ID : S_TEXT/UTF8
  65. Codec ID/Info : UTF-8 Plain Text
  66. Duration : 51 min 0 s
  67. Bit rate : 90 b/s
  68. Frame rate : 0.252 FPS
  69. Count of elements : 772
  70. Stream size : 33.9 KiB (0%)
  71. Title : SDH
  72. Language : English
  73. Default : No
  74. Forced : No

  75. Text #3
  76. ID : 5
  77. Format : UTF-8
  78. Codec ID : S_TEXT/UTF8
  79. Codec ID/Info : UTF-8 Plain Text
  80. Duration : 53 min 31 s
  81. Bit rate : 117 b/s
  82. Frame rate : 0.234 FPS
  83. Count of elements : 752
  84. Stream size : 46.0 KiB (0%)
  85. Language : Arabic
  86. Default : No
  87. Forced : No

  88. Text #4
  89. ID : 6
  90. Format : UTF-8
  91. Codec ID : S_TEXT/UTF8
  92. Codec ID/Info : UTF-8 Plain Text
  93. Duration : 53 min 31 s
  94. Bit rate : 119 b/s
  95. Frame rate : 0.222 FPS
  96. Count of elements : 714
  97. Stream size : 47.0 KiB (0%)
  98. Language : Bulgarian
  99. Default : No
  100. Forced : No

  101. Text #5
  102. ID : 7
  103. Format : UTF-8
  104. Codec ID : S_TEXT/UTF8
  105. Codec ID/Info : UTF-8 Plain Text
  106. Duration : 53 min 31 s
  107. Bit rate : 69 b/s
  108. Frame rate : 0.246 FPS
  109. Count of elements : 790
  110. Stream size : 27.4 KiB (0%)
  111. Title : Chinese (Simplified)
  112. Language : Chinese
  113. Default : No
  114. Forced : No

  115. Text #6
  116. ID : 8
  117. Format : UTF-8
  118. Codec ID : S_TEXT/UTF8
  119. Codec ID/Info : UTF-8 Plain Text
  120. Duration : 53 min 31 s
  121. Bit rate : 71 b/s
  122. Frame rate : 0.247 FPS
  123. Count of elements : 792
  124. Stream size : 27.9 KiB (0%)
  125. Title : Chinese (Traditional)
  126. Language : Chinese
  127. Default : No
  128. Forced : No
复制代码

医院五天 / 纪念医院的五日/医院五日4k.Five.Days.at.Memorial.S01.2160p.ATVP.WEB-DL.x265.10bit.SDR.DDP5.1.Atmos-4k美剧下载

医院五日4k.Five.Days.at.Memorial.S01.2160p.ATVP.WEB-DL.x265.10bit.SDR.DDP5.1.Atmos-简繁中字【56.80 GB】
[4k世界]医院五日4k.Five.Days.at.Memorial.S01.2160p.ATVP.WEB-DL.x265.10bit.SDR.DDP5.1.Atmos-NTb.torrent (72.36 KB)
回复

使用道具 举报

全部回复3

zgxman 22-9-20 18:17 显示全部楼层

zgxman 2

22-9-20 18:17

多谢分享
回复 支持 反对

使用道具 举报

丿海阔天空 3

22-9-21 08:48

评分挺高的,值得一看
回复 支持 反对

使用道具 举报

cdd_gao 22-9-21 10:08 显示全部楼层

cdd_gao 4

22-9-21 10:08

评分挺高的,值得一看
回复 支持 反对

使用道具 举报

   发表回复

您需要登录后才可以回帖 登录 | 立即注册

返回列表 本版积分规则

  • 购买会员

  • 帮助

  • 回顶部