4K世界

电影封面:
片  名: 黑湖妖潭4k
导  演: 杰克·阿诺德
电影分类: 科幻   恐怖   
国  家: 美国 
年  代: 更早
豆瓣评分: 6.8 分
分 辨 率: 4K(3840x2160)
资源特性:  
画质标准: HDR10 
音质编码: DTS-HD Master Audio   
电影声道: 2.0声道    
帧数/FPS: 23.976 帧
电影语言: 原版字幕 
中文字幕: /thread-71994-1-1.html
剧情简介: 本片为经典惊悚电影,叙述地质小队来到亚马逊丛林里,科学家发现海洋与陆地交接间有种恐怖生物,长个骷髅手和蛛网指。他们接着又发现半人半鱼的生物,试图要捕捉牠,不久这可怕生物就要反扑。
黑湖妖谭 / 黑湖怪兽 / Black Lagoon/黑湖妖潭4k.Creature.from.the.Black.Lagoon.1954.2160p.WEB-DL.x265.10bit.HDR.DTS-HD.MA.2.0-4k电影信息
  1. Video
  2. ID : 1
  3. Format : HEVC
  4. Format/Info : High Efficiency Video Coding
  5. Format profile : Main 10@L5@High
  6. HDR format : SMPTE ST 2086, HDR10 compatible
  7. Codec ID : V_MPEGH/ISO/HEVC
  8. Duration : 1 h 19 min
  9. Bit rate : 24.9 Mb/s
  10. Width : 3 840 pixels
  11. Height : 2 072 pixels
  12. Display aspect ratio : 1.85:1
  13. Frame rate mode : Constant
  14. Frame rate : 23.976 FPS
  15. Color space : YUV
  16. Chroma subsampling : 4:2:0 (Type 2)
  17. Bit depth : 10 bits
  18. Bits/(Pixel*Frame) : 0.131
  19. Stream size : 13.8 GiB (93%)
  20. Default : Yes
  21. Forced : No
  22. Color range : Limited
  23. Color primaries : BT.2020
  24. Transfer characteristics : PQ
  25. Matrix coefficients : BT.2020 non-constant
  26. Mastering display color primaries : Display P3
  27. Mastering display luminance : min: 0.0050 cd/m2, max: 4000 cd/m2
  28. Maximum Content Light Level : 1000 cd/m2
  29. Maximum Frame-Average Light Level : 218 cd/m2

  30. Audio #1
  31. ID : 2
  32. Format : DTS XLL
  33. Format/Info : Digital Theater Systems
  34. Commercial name : DTS-HD Master Audio
  35. Codec ID : A_DTS
  36. Duration : 1 h 19 min
  37. Bit rate mode : Variable
  38. Bit rate : 1 859 kb/s
  39. Channel(s) : 2 channels
  40. Channel layout : L R
  41. Sampling rate : 48.0 kHz
  42. Frame rate : 93.750 FPS (512 SPF)
  43. Bit depth : 24 bits
  44. Compression mode : Lossless
  45. Stream size : 1.03 GiB (7%)
  46. Title : DTS-HD MA 2.0
  47. Language : English
  48. Default : Yes
  49. Forced : No

  50. Audio #2
  51. ID : 3
  52. Format : AAC LC
  53. Format/Info : Advanced Audio Codec Low Complexity
  54. Codec ID : A_AAC-2
  55. Duration : 1 h 19 min
  56. Bit rate : 120 kb/s
  57. Channel(s) : 2 channels
  58. Channel layout : L R
  59. Sampling rate : 48.0 kHz
  60. Frame rate : 46.875 FPS (1024 SPF)
  61. Compression mode : Lossy
  62. Stream size : 68.1 MiB (0%)
  63. Title : AAC 2.0
  64. Language : English
  65. Default : No
  66. Forced : No

  67. Text #1
  68. ID : 4
  69. Format : UTF-8
  70. Codec ID : S_TEXT/UTF8
  71. Codec ID/Info : UTF-8 Plain Text
  72. Duration : 1 h 18 min
  73. Bit rate : 46 b/s
  74. Frame rate : 0.193 FPS
  75. Count of elements : 913
  76. Stream size : 26.8 KiB (0%)
  77. Language : English
  78. Default : Yes
  79. Forced : No

  80. Text #2
  81. ID : 5
  82. Format : PGS
  83. Muxing mode : zlib
  84. Codec ID : S_HDMV/PGS
  85. Codec ID/Info : Picture based subtitle format used on BDs/HD-DVDs
  86. Duration : 1 h 16 min
  87. Bit rate : 29.3 kb/s
  88. Frame rate : 0.333 FPS
  89. Count of elements : 1537
  90. Stream size : 16.1 MiB (0%)
  91. Language : English
  92. Default : No
  93. Forced : No

  94. Text #3
  95. ID : 6
  96. Format : PGS
  97. Muxing mode : zlib
  98. Codec ID : S_HDMV/PGS
  99. Codec ID/Info : Picture based subtitle format used on BDs/HD-DVDs
  100. Duration : 1 h 17 min
  101. Bit rate : 20.7 kb/s
  102. Frame rate : 0.234 FPS
  103. Count of elements : 1094
  104. Stream size : 11.5 MiB (0%)
  105. Language : French
  106. Default : No
  107. Forced : No

  108. Text #4
  109. ID : 7
  110. Format : PGS
  111. Muxing mode : zlib
  112. Codec ID : S_HDMV/PGS
  113. Codec ID/Info : Picture based subtitle format used on BDs/HD-DVDs
  114. Duration : 1 h 17 min
  115. Bit rate : 22.4 kb/s
  116. Frame rate : 0.229 FPS
  117. Count of elements : 1070
  118. Stream size : 12.5 MiB (0%)
  119. Language : Spanish
  120. Default : No
  121. Forced : No

  122. Menu
  123. 00:00:00.000 : en:Chapter 01
  124. 00:04:07.414 : en:Chapter 02
  125. 00:08:01.231 : en:Chapter 03
  126. 00:14:47.095 : en:Chapter 04
  127. 00:19:51.524 : en:Chapter 05
  128. 00:24:14.788 : en:Chapter 06
  129. 00:28:08.813 : en:Chapter 07
  130. 00:34:11.426 : en:Chapter 08
  131. 00:40:07.115 : en:Chapter 09
  132. 00:47:04.157 : en:Chapter 10
  133. 00:52:44.330 : en:Chapter 11
  134. 00:58:55.994 : en:Chapter 12
  135. 01:02:39.718 : en:Chapter 13
  136. 01:07:46.733 : en:Chapter 14
  137. 01:13:11.099 : en:Chapter 15
  138. 01:17:56.885 : en:Chapter 16
复制代码

黑湖妖谭 / 黑湖怪兽 / Black Lagoon/黑湖妖潭4k.Creature.from.the.Black.Lagoon.1954.2160p.WEB-DL.x265.10bit.HDR.DTS-HD.MA.2.0-4k电影下载

黑湖妖潭4k.Creature.from.the.Black.Lagoon.1954.2160p.WEB-DL.x265.10bit.HDR.DTS-HD.MA.2.0【HDR】14.91 GB】
[4k世界]黑湖妖潭4k.Creature.from.the.Black.Lagoon.1954.2160p.WEB-DL.x265.10bit.HDR.DTS-HD.MA.2.0-NOGRP.torrent (19.33 KB)
回复

使用道具 举报

全部回复5

wangwingkin 2

22-9-22 18:58

不错,不错
回复 支持 反对

使用道具 举报

万米无云 3

22-9-23 08:16

一看这封面立刻想起了阿甘正传中的那一段
回复 支持 反对

使用道具 举报

鱼的眼泪 4

22-9-23 23:56

这部电影下载的是杜比视界,结果放出来是黑白片,也许那个年代就是黑白色的吧,还有看了我想笑,水怪太搞笑了,直接就是人穿了一个怪物造型的衣服,哎。。。。
回复 支持 反对

使用道具 举报

artanis1203 5

22-9-25 13:48

感谢分享
回复 支持 反对

使用道具 举报

pygwg148 6

22-9-29 11:39

鱼的眼泪 发表于 22-9-23 23:56
这部电影下载的是杜比视界,结果放出来是黑白片,也许那个年代就是黑白色的吧,还有看了我想笑,水怪太搞笑 ...

大哥50年代的电影,有画面都不错了。
回复 支持 反对

使用道具 举报

   发表回复

您需要登录后才可以回帖 登录 | 立即注册

返回列表 本版积分规则

  • 购买会员

  • 帮助

  • 回顶部