4K世界

电视剧封面:
电视剧名: 争锋相辩4k
年  代: 2022  
国  家: 韩国
类  别:  
语  言: 其他
字  幕: 其他字幕
上映日期: 2022-09-21
文件格式: mkv    
视频效果: 4K(3840x2160)    
资源大小: 6.45 GB
片  长: -
导  演: -
剧情简介:  顶级律师卢昔意(郑丽媛 饰)胜诉率高达92%,遇上乌龙律师左是白(李奎炯 饰),被迫一起工作之余,还卷入年老富豪连环凶杀案,这对疯癫斗嘴组合,会擦出怎样的火花?
争锋相辩4k.May.It.Please.the.Court.S01E01.KOREAN.2160p.DSNP.WEB-DL.x265.10bit.HDR.DDP5.1-4k美剧信息
  1. Video
  2. ID : 1
  3. Format : HEVC
  4. Format/Info : High Efficiency Video Coding
  5. Format profile : Main 10@L5@High
  6. HDR format : Dolby Vision, Version 1.0, dvhe.08.06, BL+RPU, HDR10 compatible / SMPTE ST 2086, HDR10 compatible
  7. Codec ID : V_MPEGH/ISO/HEVC
  8. Duration : 1 h 2 min
  9. Bit rate : 14.5 Mb/s
  10. Width : 3 840 pixels
  11. Height : 2 160 pixels
  12. Display aspect ratio : 16:9
  13. Frame rate mode : Constant
  14. Frame rate : 23.976 (24000/1001) FPS
  15. Color space : YUV
  16. Chroma subsampling : 4:2:0
  17. Bit depth : 10 bits
  18. Bits/(Pixel*Frame) : 0.073
  19. Stream size : 6.34 GiB (98%)
  20. Default : Yes
  21. Forced : No
  22. Color range : Limited
  23. Color primaries : BT.2020
  24. Transfer characteristics : PQ
  25. Matrix coefficients : BT.2020 non-constant
  26. Mastering display color primaries : Display P3
  27. Mastering display luminance : min: 0.0001 cd/m2, max: 1000 cd/m2

  28. Audio
  29. ID : 2
  30. Format : E-AC-3
  31. Format/Info : Enhanced AC-3
  32. Commercial name : Dolby Digital Plus
  33. Codec ID : A_EAC3
  34. Duration : 1 h 2 min
  35. Bit rate mode : Constant
  36. Bit rate : 256 kb/s
  37. Channel(s) : 6 channels
  38. Channel layout : L R C LFE Ls Rs
  39. Sampling rate : 48.0 kHz
  40. Frame rate : 31.250 FPS (1536 SPF)
  41. Compression mode : Lossy
  42. Stream size : 114 MiB (2%)
  43. Language : Korean
  44. Service kind : Complete Main
  45. Default : Yes
  46. Forced : No

  47. Text #1
  48. ID : 3
  49. Format : UTF-8
  50. Codec ID : S_TEXT/UTF8
  51. Codec ID/Info : UTF-8 Plain Text
  52. Duration : 59 min 9 s
  53. Bit rate : 65 b/s
  54. Frame rate : 0.249 FPS
  55. Count of elements : 884
  56. Stream size : 28.4 KiB (0%)
  57. Language : Korean
  58. Default : No
  59. Forced : No

  60. Text #2
  61. ID : 4
  62. Format : UTF-8
  63. Codec ID : S_TEXT/UTF8
  64. Codec ID/Info : UTF-8 Plain Text
  65. Duration : 1 h 2 min
  66. Bit rate : 79 b/s
  67. Frame rate : 0.279 FPS
  68. Count of elements : 1046
  69. Stream size : 36.2 KiB (0%)
  70. Title : SDH
  71. Language : Korean
  72. Default : No
  73. Forced : No

  74. Text #3
  75. ID : 5
  76. Format : UTF-8
  77. Codec ID : S_TEXT/UTF8
  78. Codec ID/Info : UTF-8 Plain Text
  79. Duration : 1 h 0 min
  80. Bit rate : 64 b/s
  81. Frame rate : 0.236 FPS
  82. Count of elements : 853
  83. Stream size : 28.3 KiB (0%)
  84. Language : English
  85. Default : No
  86. Forced : No

  87. Text #4
  88. ID : 6
  89. Format : UTF-8
  90. Codec ID : S_TEXT/UTF8
  91. Codec ID/Info : UTF-8 Plain Text
  92. Duration : 1 h 1 min
  93. Bit rate : 72 b/s
  94. Frame rate : 0.279 FPS
  95. Count of elements : 1021
  96. Stream size : 32.4 KiB (0%)
  97. Title : SDH
  98. Language : English
  99. Default : No
  100. Forced : No

  101. Text #5
  102. ID : 7
  103. Format : UTF-8
  104. Codec ID : S_TEXT/UTF8
  105. Codec ID/Info : UTF-8 Plain Text
  106. Duration : 1 h 1 min
  107. Bit rate : 59 b/s
  108. Frame rate : 0.239 FPS
  109. Count of elements : 886
  110. Stream size : 27.0 KiB (0%)
  111. Language : Czech
  112. Default : No
  113. Forced : No

  114. Text #6
  115. ID : 8
  116. Format : UTF-8
  117. Codec ID : S_TEXT/UTF8
  118. Codec ID/Info : UTF-8 Plain Text
  119. Duration : 1 h 1 min
  120. Bit rate : 55 b/s
  121. Frame rate : 0.238 FPS
  122. Count of elements : 882
  123. Stream size : 25.3 KiB (0%)
  124. Language : Danish
  125. Default : No
  126. Forced : No

  127. Text #7
  128. ID : 9
  129. Format : UTF-8
  130. Codec ID : S_TEXT/UTF8
  131. Codec ID/Info : UTF-8 Plain Text
  132. Duration : 1 h 1 min
  133. Bit rate : 57 b/s
  134. Frame rate : 0.237 FPS
  135. Count of elements : 878
  136. Stream size : 26.0 KiB (0%)
  137. Language : German
  138. Default : No
  139. Forced : No

  140. Text #8
  141. ID : 10
  142. Format : UTF-8
  143. Codec ID : S_TEXT/UTF8
  144. Codec ID/Info : UTF-8 Plain Text
  145. Duration : 1 h 1 min
  146. Bit rate : 106 b/s
  147. Frame rate : 0.239 FPS
  148. Count of elements : 886
  149. Stream size : 48.2 KiB (0%)
  150. Language : Greek
  151. Default : No
  152. Forced : No

  153. Text #9
  154. ID : 11
  155. Format : UTF-8
  156. Codec ID : S_TEXT/UTF8
  157. Codec ID/Info : UTF-8 Plain Text
  158. Duration : 1 h 1 min
  159. Bit rate : 62 b/s
  160. Frame rate : 0.240 FPS
  161. Count of elements : 881
  162. Stream size : 28.0 KiB (0%)
  163. Title : Latin American
  164. Language : Spanish
  165. Default : No
  166. Forced : No

  167. Text #10
  168. ID : 12
  169. Format : UTF-8
  170. Codec ID : S_TEXT/UTF8
  171. Codec ID/Info : UTF-8 Plain Text
  172. Duration : 1 h 1 min
  173. Bit rate : 56 b/s
  174. Frame rate : 0.238 FPS
  175. Count of elements : 883
  176. Stream size : 25.6 KiB (0%)
  177. Title : European
  178. Language : Spanish
  179. Default : No
  180. Forced : No

  181. Text #11
  182. ID : 13
  183. Format : UTF-8
  184. Codec ID : S_TEXT/UTF8
  185. Codec ID/Info : UTF-8 Plain Text
  186. Duration : 1 h 1 min
  187. Bit rate : 58 b/s
  188. Frame rate : 0.238 FPS
  189. Count of elements : 881
  190. Stream size : 26.5 KiB (0%)
  191. Language : Finnish
  192. Default : No
  193. Forced : No

  194. Text #12
  195. ID : 14
  196. Format : UTF-8
  197. Codec ID : S_TEXT/UTF8
  198. Codec ID/Info : UTF-8 Plain Text
  199. Duration : 1 h 1 min
  200. Bit rate : 60 b/s
  201. Frame rate : 0.232 FPS
  202. Count of elements : 860
  203. Stream size : 27.6 KiB (0%)
  204. Title : European
  205. Language : French
  206. Default : No
  207. Forced : No

  208. Text #13
  209. ID : 15
  210. Format : UTF-8
  211. Codec ID : S_TEXT/UTF8
  212. Codec ID/Info : UTF-8 Plain Text
  213. Duration : 1 h 1 min
  214. Bit rate : 60 b/s
  215. Frame rate : 0.238 FPS
  216. Count of elements : 883
  217. Stream size : 27.4 KiB (0%)
  218. Language : Hungarian
  219. Default : No
  220. Forced : No

  221. Text #14
  222. ID : 16
  223. Format : UTF-8
  224. Codec ID : S_TEXT/UTF8
  225. Codec ID/Info : UTF-8 Plain Text
  226. Duration : 1 h 1 min
  227. Bit rate : 58 b/s
  228. Frame rate : 0.238 FPS
  229. Count of elements : 883
  230. Stream size : 26.7 KiB (0%)
  231. Language : Italian
  232. Default : No
  233. Forced : No

  234. Text #15
  235. ID : 17
  236. Format : UTF-8
  237. Codec ID : S_TEXT/UTF8
  238. Codec ID/Info : UTF-8 Plain Text
  239. Duration : 1 h 1 min
  240. Bit rate : 55 b/s
  241. Frame rate : 0.235 FPS
  242. Count of elements : 872
  243. Stream size : 25.1 KiB (0%)
  244. Language : Japanese
  245. Default : No
  246. Forced : No

  247. Text #16
  248. ID : 18
  249. Format : UTF-8
  250. Codec ID : S_TEXT/UTF8
  251. Codec ID/Info : UTF-8 Plain Text
  252. Duration : 1 h 1 min
  253. Bit rate : 57 b/s
  254. Frame rate : 0.235 FPS
  255. Count of elements : 871
  256. Stream size : 25.9 KiB (0%)
  257. Language : Dutch
  258. Default : No
  259. Forced : No

  260. Text #17
  261. ID : 19
  262. Format : UTF-8
  263. Codec ID : S_TEXT/UTF8
  264. Codec ID/Info : UTF-8 Plain Text
  265. Duration : 1 h 1 min
  266. Bit rate : 55 b/s
  267. Frame rate : 0.238 FPS
  268. Count of elements : 883
  269. Stream size : 24.9 KiB (0%)
  270. Language : Norwegian
  271. Default : No
  272. Forced : No

  273. Text #18
  274. ID : 20
  275. Format : UTF-8
  276. Codec ID : S_TEXT/UTF8
  277. Codec ID/Info : UTF-8 Plain Text
  278. Duration : 1 h 1 min
  279. Bit rate : 54 b/s
  280. Frame rate : 0.237 FPS
  281. Count of elements : 877
  282. Stream size : 24.6 KiB (0%)
  283. Language : Polish
  284. Default : No
  285. Forced : No

  286. Text #19
  287. ID : 21
  288. Format : UTF-8
  289. Codec ID : S_TEXT/UTF8
  290. Codec ID/Info : UTF-8 Plain Text
  291. Duration : 1 h 1 min
  292. Bit rate : 55 b/s
  293. Frame rate : 0.238 FPS
  294. Count of elements : 882
  295. Stream size : 25.0 KiB (0%)
  296. Title : Brazilian
  297. Language : Portuguese
  298. Default : No
  299. Forced : No

  300. Text #20
  301. ID : 22
  302. Format : UTF-8
  303. Codec ID : S_TEXT/UTF8
  304. Codec ID/Info : UTF-8 Plain Text
  305. Duration : 1 h 1 min
  306. Bit rate : 57 b/s
  307. Frame rate : 0.238 FPS
  308. Count of elements : 881
  309. Stream size : 26.2 KiB (0%)
  310. Title : European
  311. Language : Portuguese
  312. Default : No
  313. Forced : No

  314. Text #21
  315. ID : 23
  316. Format : UTF-8
  317. Codec ID : S_TEXT/UTF8
  318. Codec ID/Info : UTF-8 Plain Text
  319. Duration : 1 h 1 min
  320. Bit rate : 62 b/s
  321. Frame rate : 0.238 FPS
  322. Count of elements : 882
  323. Stream size : 28.1 KiB (0%)
  324. Language : Romanian
  325. Default : No
  326. Forced : No

  327. Text #22
  328. ID : 24
  329. Format : UTF-8
  330. Codec ID : S_TEXT/UTF8
  331. Codec ID/Info : UTF-8 Plain Text
  332. Duration : 1 h 1 min
  333. Bit rate : 55 b/s
  334. Frame rate : 0.239 FPS
  335. Count of elements : 886
  336. Stream size : 24.9 KiB (0%)
  337. Language : Swedish
  338. Default : No
  339. Forced : No

  340. Text #23
  341. ID : 25
  342. Format : UTF-8
  343. Codec ID : S_TEXT/UTF8
  344. Codec ID/Info : UTF-8 Plain Text
  345. Duration : 1 h 1 min
  346. Bit rate : 60 b/s
  347. Frame rate : 0.240 FPS
  348. Count of elements : 881
  349. Stream size : 26.9 KiB (0%)
  350. Language : Turkish
  351. Default : No
  352. Forced : No

  353. Text #24
  354. ID : 26
  355. Format : UTF-8
  356. Codec ID : S_TEXT/UTF8
  357. Codec ID/Info : UTF-8 Plain Text
  358. Duration : 1 h 1 min
  359. Bit rate : 51 b/s
  360. Frame rate : 0.238 FPS
  361. Count of elements : 882
  362. Stream size : 23.4 KiB (0%)
  363. Title : Hong Kong
  364. Language : Chinese
  365. Default : No
  366. Forced : No

  367. Text #25
  368. ID : 27
  369. Format : UTF-8
  370. Codec ID : S_TEXT/UTF8
  371. Codec ID/Info : UTF-8 Plain Text
  372. Duration : 1 h 1 min
  373. Bit rate : 50 b/s
  374. Frame rate : 0.239 FPS
  375. Count of elements : 885
  376. Stream size : 22.8 KiB (0%)
  377. Title : Simplified
  378. Language : Chinese
  379. Default : No
  380. Forced : No
复制代码

争锋相辩4k.May.It.Please.the.Court.S01E01.KOREAN.2160p.DSNP.WEB-DL.x265.10bit.HDR.DDP5.1-4k美剧下载

争锋相辩4k.May.It.Please.the.Court.S01E01.KOREAN.2160p.DSNP.WEB-DL.x265.10bit.HDR.DDP5.1-简繁中字【6.45 GB】
[4k世界]争锋相辩4k.May.It.Please.the.Court.S01E01.KOREAN.2160p.DSNP.WEB-DL.x265.10bit.HDR.DDP5.1-ECLiPSE.torrent (16.81 KB)
回复

使用道具 举报

全部回复6

Zhuge6385 2

22-9-22 20:39

非常就好   感谢楼主的分享啊
回复 支持 反对

使用道具 举报

zhao741106 3

22-9-23 13:22

何炅主演吗
回复 支持 反对

使用道具 举报

otherboy 4

22-9-24 14:24

等继续更新 博主加油
回复 支持 反对

使用道具 举报

zgxman 22-9-25 16:16 显示全部楼层

zgxman 5

22-9-25 16:16

多谢分享
回复 支持 反对

使用道具 举报

kangmendong 6

22-9-29 09:36

03和04的下载页有问题~
回复 支持 反对

使用道具 举报

豆豆杀手 7

22-9-30 22:15

楼主你太伟大了,谢谢楼主。
回复 支持 反对

使用道具 举报

   发表回复

您需要登录后才可以回帖 登录 | 立即注册

返回列表 本版积分规则

  • 购买会员

  • 帮助

  • 回顶部