4K世界

电视剧封面:
电视剧名: 欢迎来到雷克斯汉姆4k
年  代: 2022  
国  家: 美国
类  别: 纪录片 
语  言: 英语
字  幕: 英文原版
上映日期: 2022-08-24
文件格式: mkv    
视频效果: 4K(3840x2160)    
资源大小: 2.90 GB
片  长: -
导  演: 瑞安·雷诺兹 / 马诺伊·阿南德 / 罗布·麦克尔亨尼 / Darryl Bradford / Kevin Hamlet
剧情简介:  Rob McElhenney. Ryan Reynolds. Wrexham, Wales. To this town, football is not life and death. It’s more important than that. Watch the OFFICIAL TRAILER for FX’s Welcome to Wrexham, an original documentary series.
  Rob McElhenney (It’s Always Sunny in Philadelphia) and Ryan Reynolds (Deadpool) navigate running the third oldest professional football club in the world. Welcome to Wrexham is a docuseries tracking the dreams and worries of Wrexham, a working-class town in North Wales, UK, as two Hollywood stars take ownership of the town’s historic yet struggling football club.
  
  In 2020, Rob and Ryan teamed up to purchase the 5th tier Red Dragons in the hopes of turning the club into an underdog story the whole world could root for. The worry? Rob and Ryan have no experience in football or working with each other. From Hollywood to Wales, from the pitch to the locker room, the front office to the pub, Welcome to Wrexham will track Rob and Ryan’s crash course in football club ownership and the inextricably connected fates of a team and a town counting on two actors to bring some serious hope and change to a community that could use it.
欢迎来到雷克斯汉姆4k.Welcome.to.Wrexham.S01E01.2160p.WEB.h265-纪录片信息
  1. Video
  2. ID : 1
  3. Format : HEVC
  4. Format/Info : High Efficiency Video Coding
  5. Format profile : Main 10@L5.1@Main
  6. Codec ID : V_MPEGH/ISO/HEVC
  7. Duration : 28 min 6 s
  8. Bit rate : 14.5 Mb/s
  9. Width : 3 840 pixels
  10. Height : 2 160 pixels
  11. Display aspect ratio : 16:9
  12. Frame rate mode : Constant
  13. Frame rate : 23.976 (24000/1001) FPS
  14. Color space : YUV
  15. Chroma subsampling : 4:2:0
  16. Bit depth : 10 bits
  17. Bits/(Pixel*Frame) : 0.073
  18. Stream size : 2.85 GiB (98%)
  19. Language : English
  20. Default : Yes
  21. Forced : No

  22. Audio
  23. ID : 2
  24. Format : E-AC-3
  25. Format/Info : Enhanced AC-3
  26. Commercial name : Dolby Digital Plus
  27. Codec ID : A_EAC3
  28. Duration : 28 min 6 s
  29. Bit rate mode : Constant
  30. Bit rate : 256 kb/s
  31. Channel(s) : 6 channels
  32. Channel layout : L R C LFE Ls Rs
  33. Sampling rate : 48.0 kHz
  34. Frame rate : 31.250 FPS (1536 SPF)
  35. Compression mode : Lossy
  36. Delay relative to video : 24 ms
  37. Stream size : 51.5 MiB (2%)
  38. Language : English
  39. Service kind : Complete Main
  40. Default : Yes
  41. Forced : No

  42. Text
  43. ID : 3
  44. Format : UTF-8
  45. Codec ID : S_TEXT/UTF8
  46. Codec ID/Info : UTF-8 Plain Text
  47. Duration : 27 min 49 s
  48. Bit rate : 106 b/s
  49. Frame rate : 0.371 FPS
  50. Count of elements : 620
  51. Stream size : 21.8 KiB (0%)
  52. Title : English
  53. Language : English
  54. Default : No
  55. Forced : No
复制代码

欢迎来到雷克斯汉姆4k.Welcome.to.Wrexham.S01E01.2160p.WEB.h265-纪录片下载

欢迎来到雷克斯汉姆4k.Welcome.to.Wrexham.S01E01.2160p.WEB.h265【2.90 GB】
[4k世界]欢迎来到雷克斯汉姆4k.Welcome.to.Wrexham.S01E01.2160p.WEB.h265-KOGi.torrent (29.69 KB)
回复

使用道具 举报

全部回复1

waxyh 22-9-26 01:24 显示全部楼层

waxyh 2

22-9-26 01:24

求字幕
回复 支持 反对

使用道具 举报

   发表回复

您需要登录后才可以回帖 登录 | 立即注册

返回列表 本版积分规则

  • 购买会员

  • 帮助

  • 回顶部