4K世界

电影封面:
片  名: 无边泳池4k
导  演: 布兰登·柯南伯格
电影分类: 科幻   恐怖   惊悚   悬疑   
国  家: 美国 
年  代: 2023年  
豆瓣评分: 5.6 分
分 辨 率: 4K(3840x2160)
资源特性:  
画质标准: HDR10   
音质编码: Dolby Digital Plus Audio   
电影声道: 5.1声道    
帧数/FPS: 23.976 帧
电影语言: 原版字幕   
中文字幕: /thread-74565-1-1.html
剧情简介: 聚焦詹姆斯和艾米,他们年轻富有、处于热恋中,在费用全包的度假村海岛和闪闪发光的海滩享受假期。但在酒店门外,存在着更危险、更诱人的东西,让人飘飘欲仙。
永池/无边泳池4k.Infinity.Pool.2023.2160p.WEB-DL.x265.10bit.HDR10Plus.DDP5.1-电影信息
  1. Video
  2. ID : 1
  3. Format : HEVC
  4. Format/Info : High Efficiency Video Coding
  5. Format profile : Main 10@L5@High
  6. HDR format : SMPTE ST 2094 App 4, Version 1, HDR10+ Profile B compatible
  7. Codec ID : V_MPEGH/ISO/HEVC
  8. Duration : 1 h 57 min
  9. Bit rate : 24.6 Mb/s
  10. Width : 3 836 pixels
  11. Height : 2 156 pixels
  12. Display aspect ratio : 16:9
  13. Frame rate mode : Constant
  14. Frame rate : 23.976 FPS
  15. Color space : YUV
  16. Chroma subsampling : 4:2:0 (Type 2)
  17. Bit depth : 10 bits
  18. Bits/(Pixel*Frame) : 0.124
  19. Stream size : 20.2 GiB (97%)
  20. Language : English (US)
  21. Default : Yes
  22. Forced : No
  23. Color range : Limited
  24. Color primaries : BT.2020
  25. Transfer characteristics : PQ
  26. Matrix coefficients : BT.2020 non-constant
  27. Mastering display color primaries : Display P3
  28. Mastering display luminance : min: 0.0001 cd/m2, max: 1000 cd/m2
  29. Maximum Content Light Level : 234 cd/m2
  30. Maximum Frame-Average Light Level : 119 cd/m2

  31. Audio
  32. ID : 2
  33. Format : E-AC-3
  34. Format/Info : Enhanced AC-3
  35. Commercial name : Dolby Digital Plus
  36. Codec ID : A_EAC3
  37. Duration : 1 h 57 min
  38. Bit rate mode : Constant
  39. Bit rate : 640 kb/s
  40. Channel(s) : 6 channels
  41. Channel layout : L R C LFE Ls Rs
  42. Sampling rate : 48.0 kHz
  43. Frame rate : 31.250 FPS (1536 SPF)
  44. Compression mode : Lossy
  45. Stream size : 537 MiB (3%)
  46. Language : English
  47. Service kind : Complete Main
  48. Default : Yes
  49. Forced : No

  50. Text #1
  51. ID : 3
  52. Format : UTF-8
  53. Codec ID : S_TEXT/UTF8
  54. Codec ID/Info : UTF-8 Plain Text
  55. Duration : 1 h 46 min
  56. Bit rate : 33 b/s
  57. Frame rate : 0.146 FPS
  58. Count of elements : 930
  59. Stream size : 26.2 KiB (0%)
  60. Language : English (US)
  61. Default : Yes
  62. Forced : No

  63. Text #2
  64. ID : 4
  65. Format : UTF-8
  66. Codec ID : S_TEXT/UTF8
  67. Codec ID/Info : UTF-8 Plain Text
  68. Duration : 1 h 47 min
  69. Bit rate : 41 b/s
  70. Frame rate : 0.179 FPS
  71. Count of elements : 1149
  72. Stream size : 32.5 KiB (0%)
  73. Title : SDH
  74. Language : English (US)
  75. Default : No
  76. Forced : No

  77. Text #3
  78. ID : 5
  79. Format : UTF-8
  80. Codec ID : S_TEXT/UTF8
  81. Codec ID/Info : UTF-8 Plain Text
  82. Duration : 1 h 46 min
  83. Bit rate : 35 b/s
  84. Frame rate : 0.160 FPS
  85. Count of elements : 1021
  86. Stream size : 27.6 KiB (0%)
  87. Title : Latin American
  88. Language : Spanish (Latin America)
  89. Default : No
  90. Forced : No

  91. Menu
  92. 00:00:00.000 : en:Chapter 01
  93. 00:11:53.838 : en:Chapter 02
  94. 00:19:36.134 : en:Chapter 03
  95. 00:27:58.678 : en:Chapter 04
  96. 00:39:56.855 : en:Chapter 05
  97. 00:52:37.365 : en:Chapter 06
  98. 01:04:22.987 : en:Chapter 07
  99. 01:16:27.796 : en:Chapter 08
  100. 01:29:32.622 : en:Chapter 09
  101. 01:43:53.066 : en:Chapter 10
  102. 01:48:12.033 : en:Chapter 11
复制代码

永池/无边泳池4k.Infinity.Pool.2023.2160p.WEB-DL.x265.10bit.HDR10Plus.DDP5.1-电影下载

无边泳池4k.Infinity.Pool.2023.2160p.WEB-DL.x265.10bit.HDR10Plus.DDP5.1【20.71 GB】
[4k世界]无边泳池4k.Infinity.Pool.2023.2160p.WEB-DL.x265.10bit.HDR10Plus.DDP5.1-NOGRP.torrent (26.54 KB, 售价: 2 个K币)
回复

使用道具 举报

全部点评27

ht19870822 2023-2-14 16:53 显示全部楼层

ht19870822 2

2023-2-14 16:53

是中文字幕的吗
回复 支持 反对

使用道具 举报

行走的大树 3

2023-2-14 18:07

谢谢分享
回复 支持 反对

使用道具 举报

liyuan793 2023-2-14 19:53 显示全部楼层

liyuan793 4

2023-2-14 19:53

可惜没有中文字幕啊!
回复 支持 反对

使用道具 举报

wangxia1973 5

2023-2-15 08:13

谢谢楼主分享。。
回复 支持 反对

使用道具 举报

stonezb 2023-2-15 08:39 显示全部楼层

stonezb 6

2023-2-15 08:39

谢谢分享科幻片
回复 支持 反对

使用道具 举报

fswwen 2023-2-15 08:40 显示全部楼层

fswwen 7

2023-2-15 08:40


谢谢楼主分享
回复 支持 反对

使用道具 举报

骆有所思 8

2023-2-15 10:14

楼主,两个影片大小相差那么大,音质有区别吗?
回复 支持 反对

使用道具 举报

hao4kyxg 2023-2-15 11:38 显示全部楼层

hao4kyxg 9

2023-2-15 11:38

感谢楼主分享此片
回复 支持 反对

使用道具 举报

blucesky 2023-2-15 15:45 显示全部楼层

blucesky 10

2023-2-15 15:45

感谢大佬分享
回复 支持 反对

使用道具 举报

青见 2023-2-15 19:12 显示全部楼层

青见 11

2023-2-15 19:12

感谢分享,好像有点恐怖
回复 支持 反对

使用道具 举报

ooitismeoo 2023-2-15 19:34 显示全部楼层

ooitismeoo 12

2023-2-15 19:34

谢谢分享
回复 支持 反对

使用道具 举报

34362436 2023-2-16 20:54 显示全部楼层

34362436 13

2023-2-16 20:54

感谢分享!
回复 支持 反对

使用道具 举报

hao4kyxg 2023-2-17 08:35 显示全部楼层

hao4kyxg 14

2023-2-17 08:35

感谢分享,试试看到底恐不恐怖
回复 支持 反对

使用道具 举报

bajibaji008 15

2023-2-17 20:12

新人进场,多多捧场
回复 支持 反对

使用道具 举报

zhangya23 2023-2-18 12:01 显示全部楼层

zhangya23 16

2023-2-18 12:01

感谢楼主的分享
回复 支持 反对

使用道具 举报

ben51 2023-2-19 01:08 显示全部楼层

ben51 17

2023-2-19 01:08

谢谢分享小众片
回复 支持 反对

使用道具 举报

yykalsk 2023-2-19 16:23 显示全部楼层

yykalsk 18

2023-2-19 16:23


感谢楼主的分享
回复 支持 反对

使用道具 举报

   发表点评

您需要登录后才可以回帖 登录 | 立即注册

返回列表 本版积分规则

  • 购买会员

  • 帮助

  • 回顶部