注册/登陆
游客您好
第三方账号登陆
兄弟闯天涯4k.All.the.Places.2023.SPANISH.2160p.电影下载
[复制链接]
2023-04-05 发布
  • 4K大师玩家
  • 20
  • 3336
静待花开 发表于 2023-4-5 08:28:37 |阅读模式 打印 上一主题 下一主题

兄弟闯天涯4k
2023年(豆瓣:0)
  • 电影声道:5.1声道 
  • 电影语言:英文字幕   
  • 画质标准 HDR 
  • 资源版本  
  • 帧数/FPS:23.976 Fps
    发布排行: 第部4K原盘
    导  演:Pitipol Ybarra
    制片国家:其他 
    电影分类:喜剧 
    分 辨 率:4K(3840x2160)
简介 An estranged brother and sister reunite at their father\'s funeral and make a spur of the moment decision to fulfill their childhood dream of driving across Mexico on their old motorbikes.
All the Places/兄弟闯天涯4k.All.the.Places.2023.SPANISH.2160p.NF.WEB-DL.x265.10bit.HDR.DDP5.1-4k电影信息
  1. Video
  2. ID : 1
  3. Format : HEVC
  4. Format/Info : High Efficiency Video Coding
  5. Format profile : Main 10@L5@Main
  6. HDR format : Dolby Vision, Version 1.0, dvhe.08.06, BL+RPU, HDR10 compatible / SMPTE ST 2086, HDR10 compatible
  7. Codec ID : V_MPEGH/ISO/HEVC
  8. Duration : 1 h 37 min
  9. Bit rate : 17.6 Mb/s
  10. Width : 3 840 pixels
  11. Height : 2 160 pixels
  12. Display aspect ratio : 16:9
  13. Frame rate mode : Constant
  14. Frame rate : 23.976 (24000/1001) FPS
  15. Color space : YUV
  16. Chroma subsampling : 4:2:0 (Type 2)
  17. Bit depth : 10 bits
  18. Bits/(Pixel*Frame) : 0.088
  19. Stream size : 11.9 GiB (96%)
  20. Language : Spanish
  21. Default : Yes
  22. Forced : No
  23. Color range : Limited
  24. Color primaries : BT.2020
  25. Transfer characteristics : PQ
  26. Matrix coefficients : BT.2020 non-constant
  27. Mastering display color primaries : Display P3
  28. Mastering display luminance : min: 0.0001 cd/m2, max: 1000 cd/m2
  29. Maximum Content Light Level : 1054 cd/m2
  30. Maximum Frame-Average Light Level : 191 cd/m2

  31. Audio
  32. ID : 2
  33. Format : E-AC-3
  34. Format/Info : Enhanced AC-3
  35. Commercial name : Dolby Digital Plus
  36. Codec ID : A_EAC3
  37. Duration : 1 h 37 min
  38. Bit rate mode : Constant
  39. Bit rate : 640 kb/s
  40. Channel(s) : 6 channels
  41. Channel layout : L R C LFE Ls Rs
  42. Sampling rate : 48.0 kHz
  43. Frame rate : 31.250 FPS (1536 SPF)
  44. Compression mode : Lossy
  45. Stream size : 446 MiB (4%)
  46. Language : Spanish (Latin America)
  47. Service kind : Complete Main
  48. Default : Yes
  49. Forced : No

  50. Text #1
  51. ID : 3
  52. Format : UTF-8
  53. Codec ID : S_TEXT/UTF8
  54. Codec ID/Info : UTF-8 Plain Text
  55. Duration : 1 h 26 min
  56. Bit rate : 0 b/s
  57. Frame rate : 0.003 FPS
  58. Count of elements : 17
  59. Stream size : 384 Bytes (0%)
  60. Title : Latin America (Forced)
  61. Language : Spanish (Latin America)
  62. Default : Yes
  63. Forced : Yes

  64. Text #2
  65. ID : 4
  66. Format : UTF-8
  67. Codec ID : S_TEXT/UTF8
  68. Codec ID/Info : UTF-8 Plain Text
  69. Duration : 1 h 36 min
  70. Bit rate : 66 b/s
  71. Frame rate : 0.315 FPS
  72. Count of elements : 1826
  73. Stream size : 47.2 KiB (0%)
  74. Title : Latin America (SDH)
  75. Language : Spanish (Latin America)
  76. Default : No
  77. Forced : No

  78. Text #3
  79. ID : 5
  80. Format : UTF-8
  81. Codec ID : S_TEXT/UTF8
  82. Codec ID/Info : UTF-8 Plain Text
  83. Duration : 1 h 36 min
  84. Bit rate : 57 b/s
  85. Frame rate : 0.269 FPS
  86. Count of elements : 1561
  87. Stream size : 40.9 KiB (0%)
  88. Title : Latin America
  89. Language : Spanish (Latin America)
  90. Default : No
  91. Forced : No

  92. Text #4
  93. ID : 6
  94. Format : UTF-8
  95. Codec ID : S_TEXT/UTF8
  96. Codec ID/Info : UTF-8 Plain Text
  97. Duration : 1 h 36 min
  98. Bit rate : 97 b/s
  99. Frame rate : 0.259 FPS
  100. Count of elements : 1499
  101. Stream size : 69.2 KiB (0%)
  102. Language : Arabic
  103. Default : No
  104. Forced : No

  105. Text #5
  106. ID : 7
  107. Format : UTF-8
  108. Codec ID : S_TEXT/UTF8
  109. Codec ID/Info : UTF-8 Plain Text
  110. Duration : 1 h 36 min
  111. Bit rate : 49 b/s
  112. Frame rate : 0.254 FPS
  113. Count of elements : 1469
  114. Stream size : 34.9 KiB (0%)
  115. Language : Czech
  116. Default : No
  117. Forced : No

  118. Text #6
  119. ID : 8
  120. Format : UTF-8
  121. Codec ID : S_TEXT/UTF8
  122. Codec ID/Info : UTF-8 Plain Text
  123. Duration : 1 h 36 min
  124. Bit rate : 49 b/s
  125. Frame rate : 0.249 FPS
  126. Count of elements : 1443
  127. Stream size : 35.1 KiB (0%)
  128. Language : Danish
  129. Default : No
  130. Forced : No

  131. Text #7
  132. ID : 9
  133. Format : UTF-8
  134. Codec ID : S_TEXT/UTF8
  135. Codec ID/Info : UTF-8 Plain Text
  136. Duration : 1 h 36 min
  137. Bit rate : 51 b/s
  138. Frame rate : 0.240 FPS
  139. Count of elements : 1392
  140. Stream size : 36.4 KiB (0%)
  141. Language : German
  142. Default : No
  143. Forced : No

  144. Text #8
  145. ID : 10
  146. Format : UTF-8
  147. Codec ID : S_TEXT/UTF8
  148. Codec ID/Info : UTF-8 Plain Text
  149. Duration : 1 h 36 min
  150. Bit rate : 84 b/s
  151. Frame rate : 0.245 FPS
  152. Count of elements : 1420
  153. Stream size : 59.8 KiB (0%)
  154. Language : Greek
  155. Default : No
  156. Forced : No

  157. Text #9
  158. ID : 11
  159. Format : UTF-8
  160. Codec ID : S_TEXT/UTF8
  161. Codec ID/Info : UTF-8 Plain Text
  162. Duration : 1 h 35 min
  163. Bit rate : 1 b/s
  164. Frame rate : 0.005 FPS
  165. Count of elements : 31
  166. Stream size : 774 Bytes (0%)
  167. Title : Forced
  168. Language : English
  169. Default : No
  170. Forced : Yes

  171. Text #10
  172. ID : 12
  173. Format : UTF-8
  174. Codec ID : S_TEXT/UTF8
  175. Codec ID/Info : UTF-8 Plain Text
  176. Duration : 1 h 34 min
  177. Bit rate : 82 b/s
  178. Frame rate : 0.362 FPS
  179. Count of elements : 2042
  180. Stream size : 57.1 KiB (0%)
  181. Title : SDH
  182. Language : English
  183. Default : No
  184. Forced : No

  185. Text #11
  186. ID : 13
  187. Format : UTF-8
  188. Codec ID : S_TEXT/UTF8
  189. Codec ID/Info : UTF-8 Plain Text
  190. Duration : 1 h 29 min
  191. Bit rate : 67 b/s
  192. Frame rate : 0.307 FPS
  193. Count of elements : 1652
  194. Stream size : 44.5 KiB (0%)
  195. Language : English
  196. Default : No
  197. Forced : No

  198. Text #12
  199. ID : 14
  200. Format : UTF-8
  201. Codec ID : S_TEXT/UTF8
  202. Codec ID/Info : UTF-8 Plain Text
  203. Duration : 1 h 36 min
  204. Bit rate : 51 b/s
  205. Frame rate : 0.257 FPS
  206. Count of elements : 1486
  207. Stream size : 36.4 KiB (0%)
  208. Language : English
  209. Default : No
  210. Forced : No

  211. Text #13
  212. ID : 15
  213. Format : UTF-8
  214. Codec ID : S_TEXT/UTF8
  215. Codec ID/Info : UTF-8 Plain Text
  216. Duration : 1 h 36 min
  217. Bit rate : 52 b/s
  218. Frame rate : 0.194 FPS
  219. Count of elements : 1126
  220. Stream size : 36.8 KiB (0%)
  221. Language : Finnish
  222. Default : No
  223. Forced : No

  224. Text #14
  225. ID : 16
  226. Format : UTF-8
  227. Codec ID : S_TEXT/UTF8
  228. Codec ID/Info : UTF-8 Plain Text
  229. Duration : 1 h 36 min
  230. Bit rate : 50 b/s
  231. Frame rate : 0.232 FPS
  232. Count of elements : 1343
  233. Stream size : 35.6 KiB (0%)
  234. Language : French
  235. Default : No
  236. Forced : No

  237. Text #15
  238. ID : 17
  239. Format : UTF-8
  240. Codec ID : S_TEXT/UTF8
  241. Codec ID/Info : UTF-8 Plain Text
  242. Duration : 1 h 36 min
  243. Bit rate : 90 b/s
  244. Frame rate : 0.255 FPS
  245. Count of elements : 1477
  246. Stream size : 63.7 KiB (0%)
  247. Language : Hebrew
  248. Default : No
  249. Forced : No

  250. Text #16
  251. ID : 18
  252. Format : UTF-8
  253. Codec ID : S_TEXT/UTF8
  254. Codec ID/Info : UTF-8 Plain Text
  255. Duration : 1 h 36 min
  256. Bit rate : 47 b/s
  257. Frame rate : 0.256 FPS
  258. Count of elements : 1483
  259. Stream size : 33.8 KiB (0%)
  260. Language : Croatian
  261. Default : No
  262. Forced : No

  263. Text #17
  264. ID : 19
  265. Format : UTF-8
  266. Codec ID : S_TEXT/UTF8
  267. Codec ID/Info : UTF-8 Plain Text
  268. Duration : 1 h 36 min
  269. Bit rate : 50 b/s
  270. Frame rate : 0.253 FPS
  271. Count of elements : 1467
  272. Stream size : 35.5 KiB (0%)
  273. Language : Hungarian
  274. Default : No
  275. Forced : No

  276. Text #18
  277. ID : 20
  278. Format : UTF-8
  279. Codec ID : S_TEXT/UTF8
  280. Codec ID/Info : UTF-8 Plain Text
  281. Duration : 1 h 36 min
  282. Bit rate : 49 b/s
  283. Frame rate : 0.259 FPS
  284. Count of elements : 1499
  285. Stream size : 34.7 KiB (0%)
  286. Language : Indonesian
  287. Default : No
  288. Forced : No

  289. Text #19
  290. ID : 21
  291. Format : UTF-8
  292. Codec ID : S_TEXT/UTF8
  293. Codec ID/Info : UTF-8 Plain Text
  294. Duration : 1 h 36 min
  295. Bit rate : 48 b/s
  296. Frame rate : 0.257 FPS
  297. Count of elements : 1489
  298. Stream size : 34.1 KiB (0%)
  299. Language : Italian
  300. Default : No
  301. Forced : No

  302. Text #20
  303. ID : 22
  304. Format : UTF-8
  305. Codec ID : S_TEXT/UTF8
  306. Codec ID/Info : UTF-8 Plain Text
  307. Duration : 1 h 36 min
  308. Bit rate : 50 b/s
  309. Frame rate : 0.266 FPS
  310. Count of elements : 1540
  311. Stream size : 36.0 KiB (0%)
  312. Language : Japanese
  313. Default : No
  314. Forced : No

  315. Text #21
  316. ID : 23
  317. Format : UTF-8
  318. Codec ID : S_TEXT/UTF8
  319. Codec ID/Info : UTF-8 Plain Text
  320. Duration : 1 h 36 min
  321. Bit rate : 65 b/s
  322. Frame rate : 0.253 FPS
  323. Count of elements : 1464
  324. Stream size : 46.5 KiB (0%)
  325. Language : Korean
  326. Default : No
  327. Forced : No

  328. Text #22
  329. ID : 24
  330. Format : UTF-8
  331. Codec ID : S_TEXT/UTF8
  332. Codec ID/Info : UTF-8 Plain Text
  333. Duration : 1 h 36 min
  334. Bit rate : 47 b/s
  335. Frame rate : 0.250 FPS
  336. Count of elements : 1448
  337. Stream size : 33.9 KiB (0%)
  338. Language : Malay
  339. Default : No
  340. Forced : No

  341. Text #23
  342. ID : 25
  343. Format : UTF-8
  344. Codec ID : S_TEXT/UTF8
  345. Codec ID/Info : UTF-8 Plain Text
  346. Duration : 1 h 36 min
  347. Bit rate : 47 b/s
  348. Frame rate : 0.229 FPS
  349. Count of elements : 1328
  350. Stream size : 33.7 KiB (0%)
  351. Language : Norwegian Bokmal
  352. Default : No
  353. Forced : No

  354. Text #24
  355. ID : 26
  356. Format : UTF-8
  357. Codec ID : S_TEXT/UTF8
  358. Codec ID/Info : UTF-8 Plain Text
  359. Duration : 1 h 36 min
  360. Bit rate : 52 b/s
  361. Frame rate : 0.225 FPS
  362. Count of elements : 1300
  363. Stream size : 37.4 KiB (0%)
  364. Language : Dutch
  365. Default : No
  366. Forced : No

  367. Text #25
  368. ID : 27
  369. Format : UTF-8
  370. Codec ID : S_TEXT/UTF8
  371. Codec ID/Info : UTF-8 Plain Text
  372. Duration : 1 h 36 min
  373. Bit rate : 46 b/s
  374. Frame rate : 0.252 FPS
  375. Count of elements : 1458
  376. Stream size : 32.7 KiB (0%)
  377. Language : Polish
  378. Default : No
  379. Forced : No

  380. Text #26
  381. ID : 28
  382. Format : UTF-8
  383. Codec ID : S_TEXT/UTF8
  384. Codec ID/Info : UTF-8 Plain Text
  385. Duration : 1 h 36 min
  386. Bit rate : 1 b/s
  387. Frame rate : 0.005 FPS
  388. Count of elements : 30
  389. Stream size : 858 Bytes (0%)
  390. Title : Brazil (Forced)
  391. Language : Portuguese (BR)
  392. Default : No
  393. Forced : Yes

  394. Text #27
  395. ID : 29
  396. Format : UTF-8
  397. Codec ID : S_TEXT/UTF8
  398. Codec ID/Info : UTF-8 Plain Text
  399. Duration : 1 h 36 min
  400. Bit rate : 50 b/s
  401. Frame rate : 0.257 FPS
  402. Count of elements : 1490
  403. Stream size : 35.4 KiB (0%)
  404. Title : Brazil
  405. Language : Portuguese (BR)
  406. Default : No
  407. Forced : No

  408. Text #28
  409. ID : 30
  410. Format : UTF-8
  411. Codec ID : S_TEXT/UTF8
  412. Codec ID/Info : UTF-8 Plain Text
  413. Duration : 1 h 36 min
  414. Bit rate : 53 b/s
  415. Frame rate : 0.243 FPS
  416. Count of elements : 1409
  417. Stream size : 38.1 KiB (0%)
  418. Language : Portuguese (PT)
  419. Default : No
  420. Forced : No

  421. Text #29
  422. ID : 31
  423. Format : UTF-8
  424. Codec ID : S_TEXT/UTF8
  425. Codec ID/Info : UTF-8 Plain Text
  426. Duration : 1 h 36 min
  427. Bit rate : 57 b/s
  428. Frame rate : 0.251 FPS
  429. Count of elements : 1456
  430. Stream size : 40.8 KiB (0%)
  431. Language : Romanian
  432. Default : No
  433. Forced : No

  434. Text #30
  435. ID : 32
  436. Format : UTF-8
  437. Codec ID : S_TEXT/UTF8
  438. Codec ID/Info : UTF-8 Plain Text
  439. Duration : 1 h 36 min
  440. Bit rate : 85 b/s
  441. Frame rate : 0.262 FPS
  442. Count of elements : 1516
  443. Stream size : 60.5 KiB (0%)
  444. Language : Russian
  445. Default : No
  446. Forced : No

  447. Text #31
  448. ID : 33
  449. Format : UTF-8
  450. Codec ID : S_TEXT/UTF8
  451. Codec ID/Info : UTF-8 Plain Text
  452. Duration : 1 h 36 min
  453. Bit rate : 50 b/s
  454. Frame rate : 0.218 FPS
  455. Count of elements : 1266
  456. Stream size : 35.4 KiB (0%)
  457. Language : Swedish
  458. Default : No
  459. Forced : No

  460. Text #32
  461. ID : 34
  462. Format : UTF-8
  463. Codec ID : S_TEXT/UTF8
  464. Codec ID/Info : UTF-8 Plain Text
  465. Duration : 1 h 36 min
  466. Bit rate : 144 b/s
  467. Frame rate : 0.262 FPS
  468. Count of elements : 1520
  469. Stream size : 102 KiB (0%)
  470. Language : Thai
  471. Default : No
  472. Forced : No

  473. Text #33
  474. ID : 35
  475. Format : UTF-8
  476. Codec ID : S_TEXT/UTF8
  477. Codec ID/Info : UTF-8 Plain Text
  478. Duration : 1 h 36 min
  479. Bit rate : 50 b/s
  480. Frame rate : 0.244 FPS
  481. Count of elements : 1411
  482. Stream size : 35.9 KiB (0%)
  483. Language : Turkish
  484. Default : No
  485. Forced : No

  486. Text #34
  487. ID : 36
  488. Format : UTF-8
  489. Codec ID : S_TEXT/UTF8
  490. Codec ID/Info : UTF-8 Plain Text
  491. Duration : 1 h 36 min
  492. Bit rate : 84 b/s
  493. Frame rate : 0.249 FPS
  494. Count of elements : 1442
  495. Stream size : 59.5 KiB (0%)
  496. Language : Ukrainian
  497. Default : No
  498. Forced : No

  499. Text #35
  500. ID : 37
  501. Format : UTF-8
  502. Codec ID : S_TEXT/UTF8
  503. Codec ID/Info : UTF-8 Plain Text
  504. Duration : 1 h 36 min
  505. Bit rate : 81 b/s
  506. Frame rate : 0.251 FPS
  507. Count of elements : 1452
  508. Stream size : 57.4 KiB (0%)
  509. Language : Vietnamese
  510. Default : No
  511. Forced : No

  512. Text #36
  513. ID : 38
  514. Format : UTF-8
  515. Codec ID : S_TEXT/UTF8
  516. Codec ID/Info : UTF-8 Plain Text
  517. Duration : 1 h 36 min
  518. Bit rate : 57 b/s
  519. Frame rate : 0.262 FPS
  520. Count of elements : 1520
  521. Stream size : 41.0 KiB (0%)
  522. Title : Simplified
  523. Language : Chinese (Simplied)
  524. Default : No
  525. Forced : No

  526. Text #37
  527. ID : 39
  528. Format : UTF-8
  529. Codec ID : S_TEXT/UTF8
  530. Codec ID/Info : UTF-8 Plain Text
  531. Duration : 1 h 36 min
  532. Bit rate : 54 b/s
  533. Frame rate : 0.263 FPS
  534. Count of elements : 1527
  535. Stream size : 38.4 KiB (0%)
  536. Title : Traditional
  537. Language : Chinese (Traditional)
  538. Default : No
  539. Forced : No

  540. Menu
  541. 01:31:12.000 : en:End Credits
  542. All.the.Places.2023.SPANISH.2160p.NF.WEB-DL.x265.10bit.HDR.DDP5.1-APEX        
复制代码

All the Places/兄弟闯天涯4k.All.the.Places.2023.SPANISH.2160p.NF.WEB-DL.x265.10bit.HDR.DDP5.1-4k电影下载

兄弟闯天涯4k.All.the.Places.2023.SPANISH.2160p.NF.WEB-DL.x265.10bit.HDR.DDP5.1
【简繁中字】【12.37 GB】
磁力链下载:

magnet:?xt=urn:btih:3f5e709792a90b0cd3b2b5ba2c0be3fdad5ef24f&dn

精彩评论5

hzlzd 发表于 2023-4-5 18:33:19
一个疏远的兄弟姐妹在他们父亲的葬礼上团聚,并立即决定实现他们儿时的梦想,骑着他们的旧摩托车穿越墨西哥。
回复 支持 反对

使用道具 举报

13906993420 发表于 2023-4-16 22:41:45
感谢分享,谢谢了!
回复 支持 反对

使用道具 举报

tekkenlong 发表于 2023-4-17 09:01:05
谢谢楼主
回复 支持 反对

使用道具 举报

您需要登录后才可以回帖 登录 | 立即注册

本版积分规则

推荐影视全站推荐影视下载
  • 6.7

    前天 23:58/4K(3840x2160)

    美国骗局4k

    Disc Title: American.Hustle.2013.2160p.USA.UHD.Blu-ray.DV.HDR.HEVC.TrueHD.7.1.Atmos-4ksj Disc Label: AMERICAN_HUSTLE Disc Size: 90,587,158,705 bytes Protection: AACS2 Playlist: 00001.MPLS Size: 85,214,373,888 bytes Length: 02:18:03.274 Total Bitrate: 82.30 Mbps Video: MPEG-H HEVC Video / 66,371 kbps / 2160p / 23.976 fps / 16:9 / Main 10 @ Level 5.1 @ High / 4:2:0 / 10 bits / HDR10 / Limited Range / BT.2020 / PQ / BT.2020 non-constant / Mastering display color primaries: Display P3 / Mastering display luminance: min: 0.0001 cd/m2, max: 1000.0000 cd/m2 / Maximum Content Light Level: 997 cd / m2 / Maximum Frame-Average Light Level: 284 cd/m2 * Video: MPEG-H HEVC Video / 2,101 kbps / 1080p / 23.976 fps / 16:9 / Main 10 @ Level 5.1 @ High / 4:2:0 / 10 bits / Dolby Vision / Limited Range / BT.2020 / PQ / BT.2020 non-constant / Mastering display color primaries: Display P3 / Mastering display luminance: min: 0.0001 cd/m2, max: 1000.0000 cd/m2 Audio: English / Dolby TrueHD/Atmos Audio / 7.1 / 48 kHz / 3630 kbps / 24-bit (AC3 Embedded: 5.1 / 48 kHz / 640 kbps / DN -31dB) Audio: English / DTS-HD Master Audio / 5.1 / 48 kHz / 2160 kbps / 16-bit (DTS Core: 5.1 / 48 kHz / 1509 kbps / 16-bit) Audio: Spanish / DTS-HD Master Audio / 5.1 / 48 kHz / 2177 kbps / 16-bit (DTS Core: 5.1 / 48 kHz / 1509 kbps / 16-bit) Subtitle: English / 56.67 kbps Subtitle: English / 51.51 kbps Subtitle: Spanish / 41.85 kbps

    美国骗局4k(2013年)
    6.7
    ①网盘资源信息:
    剧情简介: 一次偶然中,埃文(克里斯蒂安·贝尔 Christian Bale 饰)遇见了性感美艳的脱衣舞女西德尼(艾米·亚当斯 Amy Adams 饰),趣味相投的两人一见钟情,很快就打得火热。没想到,埃文是一个职业骗子,在他的鼓动和“爱情的力量”影响之下,西德尼毅然入伙,两人联手合作,将“事业”经营的有声有色。   然而,常在河边走哪有不湿鞋,警方早已经盯上了行事作风颇为高调的埃文和西德尼,终于,在一次精密筹划的行动中将两人捉拿归案。经不住FBI探员里奇(布莱德利·库珀 Bradley Cooper 饰)的游说和诱惑,埃文和西德尼决定与其合作,“戴罪立功”。尽管拾起了“老本行”,但这次一次,埃文和西德尼显然站在了正义的那一方,因为他们的对手是那些贪赃枉法的腐败官员。
    8.1

    6 天前/4K(3840x2160)

    周处除三害4k

    General............: The.Pig.the.Snake.and.the.Pigeon.2023.2160p.HQ.WEB-DL.H265.60fps.DTS5.1-4ksj Duration...........: 02:13:40.608 (HH:MM:SS:FF) RELEASE.SIZE.......: 25.0 GiB VIDEO.CODEC........: HEVC Main 10@L5.1@Main FRAMERATE..........: 60.000 fps VIDEO.BITRATE......: 25.0 Mb/s RESOLUTION.........: 3840 x 1608 ASPECT.RATIO.......: 2.40:1 Audio..............: DTS 6 channels 768 kb/s Chinese Mandarin [DTS5.1] Audio..............: E-AC-3 6 channels 256 kb/s Chinese Mandarin [DDP5.1] fm.hq Audio..............: E-AC-3 2 channels 256 kb/s Chinese Mandarin [DDP2.0] Audio..............: AAC 6 channels 256 kb/s Chinese Mandarin [AAC5.1] Audio..............: AAC 2 channels 256 kb/s Chinese Mandarin [AAC2.0]

    周处除三害4k(2023年)
    8.1
    ①网盘资源信息:
    剧情简介:通缉犯陈桂林(阮经天 饰)在逃亡藏匿中失去最后一个亲人,同时得知自己只有不到三个月的生命。万念俱灰的他原打算投案自首,可是当发现他在三大通缉犯中仅仅排名第三时,内心突然躁动起来。在此之后,他决定仿效古时候周处除三害的故事,临终之际要在江湖上留下他的传奇名号。通过地下医生张贵卿(谢琼煖 饰),陈桂林找到了分别排名第二和第一的香港仔(袁富华 饰)和牛头的线索,随后踏上征途。贪嗔痴,三毒熬煎,红尘混沌之人,被业障缠绕,永远无法跳脱因果轮回……   电影引用的“周处除三害”典故,见于《晋书·周处传》和《世说新语》。
    5.5

    3 天前/4K(3840x2160)

    我不好惹2:贝琪之怒4k

    Disc Title: BECKY 2 - SHE\\\\\\\\\\\\\\\\\\\\\\\\\\\\\\\'S BACK Disc Label: The.Wrath.of.Becky.2023.2160p.UHD.Blu-ray.HEVC.DTS-HD.MA.7.1-4ksj Disc Size: 54,543,534,782 bytes Protection: AACS2 Playlist: 00000.MPLS Size: 52,846,829,184 bytes Length: 1:24:10.000 Total Bitrate: 83.72 Mbps Video: MPEG-H HEVC Video / 70339 kbps / 2160p / 24 fps / 16:9 / Main 10 @ Level 5.1 @ High / 10 bits / HDR10 / BT.2020 Audio: German / DTS-HD Master Audio / 7.1 / 48 kHz / 4743 kbps / 24-bit (DTS Core: 5.1 / 48 kHz / 1509 kbps / 24-bit) Audio: English / DTS-HD Master Audio / 7.1 / 48 kHz / 4585 kbps / 24-bit (DTS Core: 5.1 / 48 kHz / 1509 kbps / 24-bit) Subtitle: German / 31.173 kbps Subtitle: German / 0.717 kbps

    ①网盘资源信息:
    剧情简介:在逃离暴力袭击两年后,女孩贝琪必须再度保护自己免受恐怖分子的袭击。贝琪试图在名叫埃琳娜的年长女性的照顾下重建自己的生活。但是,当一个被称为“贵族”的团体闯入他们的家,袭击他们,并带走她心爱的狗迭戈时,贝琪必须找回她以前的方式来保护自己和她的亲人。
    8.1

    7 天前/4K(3840x2160)

    戏梦巴黎4k

    BD INFO wrote: DISC INFO: Disc Title: The Dreamers Disc Label: THE DREAMERS Disc Size: 58,082,293,108 bytes Protection: AACS2 Extras: Ultra HD BDInfo: 0.8.0.1b PLAYLIST REPORT: Name: 00000.MPLS Length: 01:54:57.166 (h:m:s.ms) Size: 57,694,041,792 bytes Total Bitrate: 66.92 Mbps (*) Indicates included stream hidden by this playlist. VIDEO: Codec Bitrate Description --------------- ------------- ----------- MPEG-H HEVC Video 59,524 kbps 2160p / 24 fps / 16:9 / Main 10 @ Level 5.1 @ High / 4:2:0 / 10 bits / HDR10 / Limited Range / BT.2020 / PQ / BT.2020 non-constant / Mastering display color primaries: BT.2020 / Mastering display luminance: min: 0.0001 cd/m2, max: 1000.0000 cd/m2 * MPEG-H HEVC Video 103 kbps 1080p / 24 fps / 16:9 / Main 10 @ Level 5.1 @ High / 4:2:0 / 10 bits / Dolby Vision / Limited Range / BT.2020 / PQ / BT.2020 non-constant / Mastering display color primaries: BT.2020 / Mastering display luminance: min: 0.0001 cd/m2, max: 1000.0000 cd/m2 AUDIO: Codec Language Bitrate Description --------------- ------------- ------------- ----------- DTS-HD Master Audio English 2129 kbps 5.1 / 48 kHz / 2129 kbps / 16-bit (DTS Core: 5.1 / 48 kHz / 1509 kbps / 16-bit) DTS-HD Master Audio English 1559 kbps 2.0 / 48 kHz / 1559 kbps / 16-bit (DTS Core: 2.0 / 48 kHz / 1509 kbps / 16-bit) Dolby Digital Audio English 224 kbps 2.0 / 48 kHz / 224 kbps / DN -31dB SUBTITLES: Codec Language Bitrate Description --------------- ------------- ------------- ----------- Presentation Graphics English 25.33 kbps 1920x1080 / 1116 Captions Presentation Graphics English 2.62 kbps 1920x1080 / 159 Captions

    戏梦巴黎4k(00年代)
    8.1
    ①网盘资源信息:
    剧情简介:1968年法国学运前夕,孪生姐弟伊莎贝拉(伊娃•格林)和雷奥(路易斯•加瑞尔)因为电影,与来自美国的留学生马休(迈克尔•皮特)成为好朋友。姐弟两人将马休带到家中做客时,马休得到两人同是大学教授的父母的喜爱,住进他们家中,慢慢地,他喜欢上伊莎贝拉。   学运开始后大学停课,三个年轻人因无所事事在房间里玩起有关电影导演和台词的游戏,游戏进行当中,伊莎贝拉知晓马休对她有意思,联合雷奥要求马休与她,自此,由于父母出门度假,三人开始了如伊甸园般的日子,马休也慢慢发现伊莎贝拉和雷奥有不伦恋情,三人关系开始发生微妙的变化,而外面正如火如荼进行着的学运,似乎与他们无关。
    7.1

    前天 16:29/4K(3840x2160)

    特技狂人4k

    File Name............: The.Fall.Guy.2024.2160p.iTunes.WEB-DL.DDP.5.1.Atmos.HDR10+.H.265-4ksj File Size............: 22.30 GiB Duration.............: 02:06:53.451 (HH:MM:SS.FFF) Video Bit Rate.......: 24,420 kbps Video Codec..........: HEVC,Main 10@L5 SMPTE ST 2094 App 4, Version 1, HDR10+ Profile B compatible Frame Rate...........: 23.903 fps Resolution...........: 3836 x 1600 Audio#01.............: English (US) 768 kbps CBR 6channels E-AC-3 (ATMOS) Subtitle#01..........: Spanish (Latin America) Latin America Subtitle#02..........: French (CA) Canada

    特技狂人4k(2024年)
    7.1
    ①网盘资源信息:
    剧情简介:特技演员为爱犯险,翻身做主角。   科尔特·西弗斯(瑞恩·高斯林 Ryan Gosling 饰)是一名特技演员,就跟这个行业的每一个特技演员一样,他常常被炸飞、辗压、破窗而出以及从高处坠落地面,全都是为了娱乐观众。如今,他才刚因为意外受伤几乎被迫无法再从事特技表演,平凡的科尔特必须找到失踪的电影明星汤姆·赖德(亚伦·泰勒-约翰逊 Aaron Taylor-Johnson 饰)、破解一个阴谋,并且赢回他一生挚爱乔迪(艾米莉·布朗特 Emily Blunt 饰)的芳心,同时还要继续当一名特技演员。分身乏术、焦头烂额的他有可能一帆风顺吗?


2015-2023 www.4ksj.com  4K世界 |网站地图
京ICP证160991号 京公网安备11010802015683号 Copyright ©2023 All Rights Reserved.
    *本站提供的所有电影资源均来自互联网,仅限交流使用,请在下载后的2小时内删除,所有版权皆属原公司所有,如果认为本站侵犯了您的版权,请告知,我们会立即删除。